<?xml version="1.0" standalone="no"?>
<!DOCTYPE svg PUBLIC "-//W3C//DTD SVG 1.1//EN" "http://www.w3.org/Graphics/SVG/1.1/DTD/svg11.dtd" >
<svg xmlns="http://www.w3.org/2000/svg">
<metadata>
This is a custom SVG webfont generated by Font Squirrel.
Copyright   : Copyright c 2011 by vernon adams All rights reserved
Designer    : vernon adams
Foundry     : vernon adams
</metadata>
<defs>
<font id="SigmarRegular" horiz-adv-x="963" >
<font-face units-per-em="2048" ascent="1638" descent="-410" />
<missing-glyph horiz-adv-x="526" />
<glyph unicode=" "  horiz-adv-x="526" />
<glyph unicode="&#x09;" horiz-adv-x="526" />
<glyph unicode="&#xa0;" horiz-adv-x="526" />
<glyph unicode="!" horiz-adv-x="842" d="M651 295q0 -44 6 -202q1 -25 0.5 -40.5t-0.5 -31t-2.5 -24.5t-4 -17t-7.5 -12l-10 -7q-5 -3 -15 -4t-18 -1.5t-23 -0.5q-75 0 -112 6q-1 1 -72 1.5t-141 5t-70 14.5l-6 178q-2 75 1 98t3 43q-2 10 10.5 22.5t26.5 12.5q21 0 89 1t93 1h80q67 0 119.5 -10.5t52.5 -32.5z M143 842q-3 19 -8.5 97.5t-5.5 88.5q0 22 -13.5 111t-13.5 114q0 45 -14 86q-2 8 8.5 13.5t29.5 8.5t42 5t48 3t47 2.5t39 3.5t23 5h344q5 -3 33 -14t40.5 -24t12.5 -35q0 -85 -22 -152l-51 -299q-3 -4 -8 -42.5t-5 -39.5q0 -25 -5 -60t-11 -63l-17 -76q-11 -48 -16 -73 q-3 -10 -23 -16t-65 -8t-77 -2.5t-98 -0.5h-25q-20 0 -75.5 6t-64.5 11q-4 7 -8.5 34t-7.5 57.5t-4 34.5l-14 112q-12 96 -15 112z" />
<glyph unicode="&#x22;" horiz-adv-x="1501" d="M625 705q-9 -37 -23.5 -130t-29.5 -141q-4 0 -13.5 0.5t-14.5 0.5q-7 0 -48 -1t-71 0h-121h-10q-7 0 -22.5 -1.5t-23.5 -1.5q-13 0 -22.5 10t-15 27.5t-9 33.5t-6.5 35.5t-5 25.5q-11 53 -19 114t-15 134t-13 115q-28 267 -38 438l12 14h17q87 15 98 15h124q24 0 63 -7 q7 12 88 3t98 -7q55 -12 67.5 -21.5t12.5 -41.5q0 -27 -7.5 -147t-13.5 -173q-9 -46 -18.5 -144.5t-20.5 -149.5zM1336 705q-9 -35 -23.5 -128.5t-30.5 -142.5q-4 0 -13 0.5t-15 0.5q-19 0 -94 -3h-2l-15 8l-8 -6h-120h-10q-8 0 -23 -1.5t-23 -1.5q-13 0 -22.5 10 t-15.5 27.5t-9.5 33t-7.5 35.5l-4 26q-15 67 -27.5 193t-19.5 170q-32 359 -37 438l12 14q93 0 175.5 6t111.5 5q41 -5 55 -2q29 -14 146 -5q54 -13 66.5 -22t12.5 -41q0 -27 -7.5 -146.5t-13.5 -173.5q-9 -47 -18 -145t-20 -149z" />
<glyph unicode="#" horiz-adv-x="1812" d="M1602 1384q31 -31 31 -75v-8q0 -7 -31 -155h4q24 0 42 -1t38.5 -5t30 -13.5t6.5 -23.5q-8 -48 -21.5 -100.5t-18.5 -84.5q-7 -34 -14 -49t-33 -26.5t-74 -11.5l-25 -5l-45 -217h16q34 0 57 -2.5t43.5 -15.5t16.5 -37q-8 -63 -21.5 -131.5t-18.5 -108.5q-5 -33 -9.5 -49 t-17 -33t-35 -23.5t-59.5 -6.5l-15 -4q-12 -3 -19 -3h-17q-33 -171 -58 -205q-125 -11 -155 -13q-54 -2 -108 -2t-86.5 0.5t-59.5 1t-29 0.5q-18 0 -18 38q0 27 10 84.5t10 66.5q3 24 4 29h-222q-33 -171 -58 -205q-21 0 -45 -2t-40 -4l-15 -2h-6q-9 0 -18 4t-14 4l-9 -3 l-8 -5h-152q-8 -5 -131 -5q-18 0 -18 38q0 27 10 84.5t10 66.5q3 24 4 28q-30 0 -49 1.5t-38.5 7.5t-27.5 19t-5 33q35 271 40 301q2 18 22.5 35.5t38.5 17.5q53 0 94 4l13 81l25 132h-12h-34q-12 0 -30.5 1.5t-27.5 4.5t-19 7.5t-13 13t-1 19.5q35 211 40 233q2 13 23 27 t38 14q2 0 98 3l41 213q0 3 9.5 11.5t9.5 10.5q5 0 9 -1t8 -1q8 0 24 6.5t26 6.5q9 0 26 -5.5t26 -5.5q15 11 50 11q9 0 29 -1t29 -1q0 -2 6 -5.5t9 -3.5q2 0 12 2l18 4l8 3q20 0 89.5 -3t74.5 -6q31 -31 31 -75v-8l-3 -18l-12 -56q-8 -38 -15 -76l207 -2l41 213 q36 33 86 33h102q3 0 34.5 1t66.5 1.5t73.5 0t66.5 -4t34 -9.5zM824 826l-43 -211q65 0 217 -2l13 81l25 132h-212z" />
<glyph unicode="$" horiz-adv-x="1312" d="M1241 416q0 -295 -217 -412l-6 -192l-205 -17l-12 162q-101 -6 -210 -6l-4 -139l-56 -13q-3 0 -7 6.5t-7 6.5q-1 -2 -1 -6q-1 -2 -1 -7h-57q-10 -4 -76 -4q-16 0 -19.5 40.5t-3.5 133.5q-114 38 -173 107q-62 168 -68 330q0 16 8 29.5t19 13.5q77 -3 207 -44.5t176 -41.5 q101 0 119 41l-92 44l-97 46q-40 18 -93.5 48t-90 56t-76 64.5t-63 78.5t-39 93t-15.5 112q0 330 207 432v205q0 18 12 32.5t33 14.5q18 0 40 -2.5t37 -5t17 -2.5q8 0 9 0.5t1 3.5q23 -14 43 -14q2 0 5 3l3 3q18 0 27 -197l170 4l2 160v12q0 8 15.5 21.5t29.5 13.5 q28 0 72.5 -9t73.5 -9q2 0 8 2l2 2q7 0 14.5 -61t11.5 -144q37 -6 93.5 -23.5t77.5 -21.5q8 -2 18.5 -16t16.5 -15q2 0 2 1t2 1q1 -16 9 -95.5t8 -123.5v-10q0 -25 -0.5 -39t-4 -34.5t-12.5 -31t-24 -10.5q-34 0 -148 22.5t-175 22.5q-163 0 -163 -65q0 -6 47 -28l116 -53 q69 -30 150.5 -79.5t151 -105t116 -133t46.5 -158.5z" />
<glyph unicode="%" horiz-adv-x="2549" d="M1410 408q-90 -232 -159 -368q-8 -17 -23 -29t-28.5 -17t-29.5 -8t-21.5 -3.5t-10.5 -0.5h-6q-10 0 -18 4t-12 4l-10 -3l-9 -5h-112q-2 2 -112 2q-66 0 0 182l220 528l260 668q0 4 12 12t12 10q5 0 8.5 -1t7.5 -1q14 0 45.5 6.5t47.5 6.5q141 0 204 -11q-3 -1 3 -3 q1 -1 2 -1l9 -2l19 6q16 0 27 -5.5t17.5 -24t4.5 -48t-16 -82t-41 -122.5l-62 -144q-62 -138 -62 -147q0 -2 -82 -199zM437 486q-112 0 -207 57q-81 46 -121.5 149.5t-40.5 202.5q0 80 26 159.5t71.5 144t116 105t151.5 40.5q38 0 49 -2q4 1 10 1q120 0 179.5 -8.5 t114.5 -38.5q111 -72 160.5 -162.5t49.5 -225.5q0 -137 -63 -247q-3 -6 -8 -15l-10 -16q-4 -7 -5 -7l-9 -5q-22 -33 -50.5 -57.5t-64.5 -39t-67 -23.5t-76 -12.5t-72.5 -4.5t-73.5 -1q-12 0 -31 3t-29 3zM473 904v-28q0 -4 2.5 -22t10 -50t16.5 -60q1 -10 19 -10 q20 0 34.5 32.5t21 79t9 80.5t2.5 55q0 104 -27 127q-6 5 -13 5q-21 0 -39.5 -33t-26.5 -102zM1917 -18q-112 0 -207 57q-81 46 -121.5 149.5t-40.5 202.5q0 80 26 159.5t71.5 144t116 105t151.5 40.5q38 0 49 -2q4 1 10 1q120 0 179.5 -8.5t114.5 -38.5 q111 -72 160.5 -162.5t49.5 -225.5q0 -137 -63 -247q-3 -6 -8 -15l-10 -16q-4 -7 -5 -7l-9 -5q-22 -33 -50.5 -57.5t-64.5 -39t-67 -23.5t-76 -12.5t-72.5 -4.5t-73.5 -1q-12 0 -31 3t-29 3zM1953 360v-28q0 -3 2.5 -17.5t10 -39t16.5 -45.5q1 -10 19 -10q20 0 34.5 33.5 t21 82.5t9 84t2.5 57q0 89 -28 108q-5 4 -12 4q-21 0 -39.5 -28t-26.5 -87z" />
<glyph unicode="&#x26;" horiz-adv-x="2137" d="M1825 518h-81q0 -235 46 -235q7 0 47.5 -0.5t55.5 0t46 2t55 5t48 8.5q12 -3 24.5 -17t12.5 -26v-241q0 -14 -179 -14q-67 0 -167.5 1t-117.5 1q-27 0 -81 -3t-78 -3q-70 0 -142 37t-119 100q-59 -37 -111 -66q-120 -65 -156 -65q-107 0 -323.5 -1t-324.5 -1q-13 0 -46 4 t-64.5 11t-30.5 14q0 44 -11 234.5t-11 240.5q0 31 1.5 94.5t1.5 115.5v91v95q0 306 17 501q0 39 353 39q123 0 248.5 6t230 6t266.5 -12q23 0 35.5 -32t23.5 -99t19 -96q1 -17 -0.5 -28t-2.5 -17t-7 -8.5t-8.5 -3t-13 0t-15.5 0.5q-78 0 -228.5 -14.5t-197.5 -17.5 q-16 0 -27.5 -102.5t-11.5 -166.5q0 -27 7 -35t25 -8h320q2 205 31 239q114 0 242 1t194 1q63 -5 73 -9q26 -10 32 -59q4 -33 4 -108q0 -23 7 -67q149 -6 150 -6q5 -1 18.5 -2t16 -2t11 -3.5t11 -7t6.5 -12.5t7 -20l8 -183v-6q0 -35 -23.5 -43t-115.5 -8zM1151 292l6 6 q0 78 -2 220h-288q-49 0 -60 -11t-13 -71q-1 -10 -4 -50.5t-2.5 -51t0.5 -53.5q33 0 86.5 2t119 5t94.5 4h63z" />
<glyph unicode="'" horiz-adv-x="813" d="M645 705q-9 -37 -23.5 -130t-29.5 -141q-43 5 -103 -2h-2h-2l-12 8l-8 -6h-101q-20 2 -63 -1t-64 -1q-13 11 -22 28.5t-12 31.5l-8 37l-7 34q-14 70 -28 200.5t-19 162.5q-35 220 -57 438l12 14h16l91 15q25 1 76 0t77 0q6 7 44.5 6t43.5 0l15 -6q6 2 21 2.5t20 1.5 q4 -2 13.5 -3.5t12.5 -2.5l90 -7l15 -4q3 0 7 1t7 1q63 -14 72.5 -24.5t7.5 -61.5q-8 -102 -41 -297q-9 -44 -18 -142.5t-21 -151.5z" />
<glyph unicode="(" horiz-adv-x="1123" d="M585 1475q35 17 109 30l69 9l115 -384q-44 -51 -69 -86.5t-54.5 -92.5t-43 -128t-13.5 -159q0 -113 25.5 -189t75.5 -146q7 -10 45.5 -55t47.5 -54q28 -32 57 -49l-234 -421q-156 73 -322 206q-7 6 -37 29.5t-44 35.5l-43 38q-29 26 -46 48l-41 54q-25 33 -40.5 67.5 t-32 77t-26 92.5t-14.5 106q-6 58 -6 125q0 95 13 182q24 155 90 289q28 60 71.5 115t84 91.5t94 72t83.5 52t72 37.5z" />
<glyph unicode=")" horiz-adv-x="1123" d="M427 1475q132 -68 201 -119q151 -111 218 -256q66 -134 90 -289q13 -87 13 -182q0 -67 -6 -125q-4 -50 -13.5 -97t-20.5 -83.5t-29.5 -74t-32 -62.5t-37.5 -55l-38 -45q-14 -16 -42 -41t-38 -33l-39 -31l-34 -26q-166 -133 -322 -206l-234 421q29 17 57 49q9 9 47.5 54 t45.5 55q50 70 75.5 146t25.5 189q0 88 -13.5 159t-43 128t-54.5 92.5t-69 86.5l115 384l69 -9q74 -13 109 -30z" />
<glyph unicode="*" horiz-adv-x="1176" d="M192 794l139 93l-139 93l-26 17q-16 10 -25 17l-22 16q-12 9 -18 17t-10.5 17.5t-2.5 19.5t9 21l110 169q9 13 30 16.5t33 -4.5l177 -118v102v24v24v22q0 14 1 22l4 18q2 10 6 16t9.5 12t13 8.5t17.5 2.5q40 0 101 1t101 1q15 0 30 -15t15 -30v-222q17 10 40.5 25.5 t30.5 19.5q4 3 31 26t31 26q34 22 57 22.5t36 -11.5t34 -42q15 -23 41 -58l44 -61q26 -41 -62 -98l-169 -116l169 -116q90 -57 62 -98l-44 -61q-26 -35 -41 -58q-21 -30 -34 -42t-36 -11.5t-57 22.5q-5 2 -33 26.5t-29 25.5l-77 48q-2 -112 -2 -164q0 -106 -47 -106 q-39 0 -81.5 2.5t-65.5 2.5q-53 0 -74.5 15.5t-21.5 72.5q0 4 4.5 40.5t4.5 40.5q0 11 -2 83l-184 -122q-12 -8 -33 -4.5t-30 16.5l-110 169q-7 11 -9 21t2.5 19.5t10.5 17.5t19 17l21 16q9 7 25 18z" />
<glyph unicode="+" horiz-adv-x="1131" d="M361 301h-129q-9 0 -27.5 -0.5t-28.5 0t-26.5 0.5t-26 1.5t-21.5 4.5t-19 7.5t-14 10.5t-10 15t-3 20q0 61 -1 155.5t-1 154.5q0 18 18 35.5t35 17.5h254v117q0 9 -0.5 27.5t0 28.5t0.5 26.5t2 25.5l5 22q2 12 6.5 19t10.5 14t15.5 10t20.5 3q61 0 155 1t154 1 q18 0 35.5 -18t17.5 -35v-247q95 -5 168 -5q125 0 125 -56q0 -63 -3 -134t-3 -109q0 -62 -18 -87.5t-86 -25.5h-187q-6 -126 -6 -180q0 -125 -55 -125q-64 0 -134.5 3t-109.5 3q-62 0 -87.5 18t-25.5 86q0 4 5.5 47t5.5 48q0 8 -5.5 50.5t-5.5 49.5z" />
<glyph unicode="," horiz-adv-x="837" d="M477 -481q-116 -56 -213 -56q-31 0 -39 2q-5 43 -22 101v2l6 14l-8 8l-23 70q-3 3 -12 24t-13 25q46 9 86.5 32.5t63.5 50.5t41.5 54.5t20.5 44t-1 19.5q-12 2 -81.5 4t-121 10t-53.5 27q-5 41 -9 201t-11 206l12 15l107 14h32h88q14 0 37.5 3t34.5 3h39h10l15 -6 q6 2 21 2.5t20 1.5q4 -2 13.5 -3.5t12.5 -2.5l90 -6l15 -4q3 0 7 1t7 1q39 -12 49 -22t10 -38q0 -173 21 -213q-5 -24 -6.5 -92t-9 -132.5t-28 -137t-73.5 -132t-135 -91.5z" />
<glyph unicode="-" d="M605 399h-311q-9 0 -27.5 -0.5t-28.5 0t-26.5 0.5t-25.5 2l-22 5q-12 2 -19 6.5t-14 10.5t-10 15.5t-3 20.5q0 62 -1.5 151.5t-1.5 149.5q0 18 18 35.5t36 17.5q32 0 91 4t93 4h190q35 0 93 -4t90 -4q125 0 125 -55q0 -64 -3 -132.5t-3 -107.5q0 -62 -18 -87t-87 -25 l-14 -4q-12 -3 -19 -3h-102z" />
<glyph unicode="." horiz-adv-x="785" d="M669 -20q2 -13 -4 -20t-21.5 -8.5t-30 -1.5t-38.5 1.5t-37 1.5q-4 0 -27.5 -1t-39 -1.5t-25.5 0.5q-147 5 -203 2q-3 0 -17 -1.5t-21 -2t-20.5 -0.5t-21 1.5t-16.5 4.5t-13 9.5t-5 15.5q-5 37 -8.5 198.5t-12.5 208.5l13 14l65 15h121q14 0 37.5 3t34.5 3h49l14 -6 q4 2 20 2.5t21 1.5q4 -2 13.5 -3.5t13.5 -2.5l49 -6l14 -5q2 0 7 1.5t7 1.5q39 -12 49.5 -22t10.5 -38q20 -23 20 -213q10 -59 5 -91.5t-3 -61.5z" />
<glyph unicode="/" horiz-adv-x="1120" d="M787 408l-31 -109l-32 -108l-26 -85q-15 -47 -27.5 -74.5t-24.5 -41.5q-21 0 -52.5 -2t-55.5 -4l-23 -2h-6q-9 0 -17.5 4t-13.5 4l-9 -3l-9 -5h-232q-8 -5 -112 -5q-11 0 -19 5t-11.5 15t-6 21t-1.5 26.5t2.5 28t4.5 29t5 26.5l5 23q3 13 4 15l150 528l217 668q0 4 11 12 t11 10q5 0 9 -1t8 -1q20 0 63.5 6.5t67.5 6.5q10 0 26 -5.5t25 -5.5q9 6 27 8.5t34 2.5t40 -1t32 -1q0 -2 5.5 -5.5t8.5 -3.5t20.5 4.5t18.5 4.5q39 0 52 -9h36l5 -4h2l8 -2l18 6q92 0 29 -282l-54 -144q-53 -141 -53 -147q0 -1 -64.5 -200t-64.5 -203z" />
<glyph unicode="0" horiz-adv-x="1496" d="M385 14q-15 8 -45 21l-45 20q-10 11 -31.5 25t-26.5 18q-44 37 -74.5 100t-43.5 137t-18 132.5t-5 118.5q0 99 13 180t44 184q13 10 31 46l33 65q15 29 24 29q14 2 51.5 35.5t51.5 41.5q30 20 70.5 32t69.5 16t80.5 8.5t74.5 7.5q250 -9 407 -49l63 -19q85 -30 85 -51 v-18q43 0 91 -70t48 -119q18 0 20.5 -2t2.5 -16l43 -164q0 -1 1.5 -24t3 -57.5t1.5 -61.5q0 -70 -4 -122t-16 -116.5t-40.5 -117.5t-72.5 -91q-25 -21 -75.5 -54.5t-64.5 -43.5l-178 -64q-52 0 -158.5 -10t-160.5 -10q-32 0 -138.5 22.5t-111.5 40.5zM676 311q2 -15 33 -39 t44 -24q29 0 49.5 11.5t31 24.5t16.5 38t7.5 36t2.5 35q1 22 5.5 107.5t4.5 120.5q0 15 -2 31l-2 28q-1 11 -5 30t-5.5 27t-8.5 31l-8 27l-9 32q-8 26 -9 29q-4 36 -17.5 57t-45.5 21q-19 0 -34 -5.5t-25.5 -20t-17 -24.5t-11.5 -33l-7 -32q-2 -9 -5 -35t-3 -28 q-2 -18 -15.5 -90t-13.5 -111q0 -69 12 -122t38 -122z" />
<glyph unicode="1" horiz-adv-x="1092" d="M974 1133v-451v-231q0 -65 -5.5 -170t-5.5 -156q0 -125 -55 -125q-134 0 -278.5 3t-231.5 3q-62 0 -87 18.5t-25 86.5q0 4 5 46.5t5 47.5q0 9 -5 55t-5 47q-1 46 -1.5 161t-2 193t-5.5 78q-11 0 -34.5 -27.5t-55 -55t-61.5 -27.5q-20 0 -35.5 13t-15.5 28v393q0 6 9 12.5 t39.5 24t55.5 33.5q88 57 133 57q115 0 305 -2t303 -2q19 0 36.5 -17.5t17.5 -35.5z" />
<glyph unicode="2" horiz-adv-x="1269" d="M610 1q-30 0 -88 -0.5t-86 -0.5q-163 0 -247.5 11.5t-84.5 49.5q0 54 53 107q0 -4 21 18.5t53 61.5l68 84q36 44 70 91.5t53 79.5q29 38 56.5 100t27.5 108q0 56 -33 80.5t-117 24.5q-59 0 -107 -13.5t-122 -48.5q-5 0 -16 154.5t-11 189.5q0 9 1 11l90 41q202 74 460 74 q101 0 189 -21t163 -64.5t119 -121.5t44 -182q0 -108 -71 -209.5t-222 -212.5q31 0 85 1t84 1q125 0 125 -55q0 -64 -3 -132.5t-3 -107.5q0 -62 -18 -87t-87 -25q-4 -7 -77.5 -8.5t-215.5 0t-153 1.5z" />
<glyph unicode="3" horiz-adv-x="1246" d="M1155 383q0 -160 -45.5 -254.5t-91.5 -114.5q-52 -27 -109.5 -43t-131 -22t-114.5 -7t-129 -1q-32 0 -135.5 17t-108.5 31q-5 2 -38.5 11.5t-49.5 18.5l-56 33l20 281q149 -34 240 -34q151 0 151 108q0 74 -127 86q-84 0 -168 -7l-2 222q12 0 37 -0.5t39 -0.5q38 0 64 3 t52 13t39 31.5t13 54.5q0 88 -151 88q-92 0 -240 -64l-20 291q99 45 235.5 72.5t275.5 27.5q173 -9 267 -35l52 -17q45 -18 45 -32v-13q13 0 26 -9.5t22.5 -21t20.5 -31.5t16 -31l13 -32q9 -19 9 -20q10 -21 17.5 -62.5t10.5 -53.5q0 -60 -30.5 -123.5t-81.5 -96.5 q164 -96 164 -263z" />
<glyph unicode="4" horiz-adv-x="1490" d="M440 1266q150 0 248 -6q18 10 70 10q28 0 82 -3t84 -3q2 2 4 2t4 2h78q4 -4 12 -4q1 0 15 2q2 1 6.5 1.5t6.5 0.5q4 0 14 -2t11 -2q5 2 56 0t55 -2q23 0 24.5 -50.5t-5.5 -121t5 -144.5q1 -2 -1 -43t-5.5 -148t-3.5 -233v-37h145q72 0 72 -206q0 -8 -1.5 -41.5 t-3.5 -63.5l-1 -31q-13 -18 -92 -18q-96 0 -123 -2l-4 -33q-2 -25 -2.5 -58.5t-1 -51t-4 -35.5t-13.5 -25.5t-28 -7.5q-1 0 -3 2t-4 2l-15 -3l-9 -3q-23 0 -41 3t-25 3q-6 0 -12 -6h-133q-1 0 -44.5 -9.5t-51.5 -9.5q-14 0 -23.5 12t-14 32.5t-6 38.5t-2.5 39.5t-1 25.5 l-4 76h-9q-331 0 -585 -6q-37 1 -59.5 9.5t-28 16t-5.5 15.5q0 184 7 231q6 46 54 216l15 52q-2 -2 42 106t109.5 255.5t110.5 228.5q5 5 35 27zM536 489q31 0 96.5 -1t100.5 -1v31v508z" />
<glyph unicode="5" horiz-adv-x="1205" d="M1109 403q0 -169 -45.5 -269.5t-91.5 -119.5q-52 -27 -109.5 -43t-131 -22t-114.5 -7t-129 -1q-32 0 -135.5 17t-108.5 31q-5 2 -38.5 11.5t-49.5 18.5l-56 33l13 69l-3 73l4 57l6 82q149 -34 240 -34q151 0 151 108q0 74 -127 86q-106 0 -218 -7l-7 82l2 34q1 17 1 44 q0 43 1 44l-1 51q0 2 -2.5 18.5t-5 47.5t-2.5 70v294q0 3 5 10.5t10 10.5q3 0 8 -1t8 -1q16 0 47 5t49 5q25 0 78 -4t82 -4l8 6h90q6 -6 15 -6q2 0 18 3t17 3q20 0 28 -6h323q6 -6 15 -6q3 0 27 3t27 3q24 0 35 -74t11 -182q0 -6 -3.5 -11t-10 -7.5t-13.5 -4t-17.5 -2 t-17 -1t-17 0t-13.5 0.5h-22q-26 0 -54 -4t-59 -4q-60 0 -65 2l-14 -8q0 -3 -4 -19t-9 -47.5t-7 -70.5q105 -13 153 -27l52 -17q45 -18 45 -32v-13q13 0 26 -9.5t22.5 -21t20.5 -31.5t16 -31l14 -32q8 -19 8 -20q25 -50 25 -123z" />
<glyph unicode="6" horiz-adv-x="1476" d="M717 745q126 42 246 42q153 0 254 -63q173 -99 173 -310q0 -84 -33 -156t-90 -123t-134 -86.5t-166 -53t-184 -17.5q-103 0 -202.5 24.5t-189.5 76t-158 124t-108 177.5t-40 228q0 186 39 285q51 132 177 246q211 137 539 137q130 0 279 -42q7 -3 25 -10l28 -10 q10 -3 25 -9.5t27.5 -14t23.5 -16.5q3 -2 12.5 -7t15.5 -8.5t11.5 -14.5t6 -26.5t-5.5 -43t-19 -64.5q-5 -13 -14 -34l-13 -29l-10 -23q-6 -14 -10 -18l-11 -13q-7 -8 -13 -9t-15 -3t-19.5 -0.5t-24.5 4.5q-92 29 -174 29q-67 0 -115 -12.5t-72.5 -30.5t-38.5 -42.5 t-17.5 -42t-4.5 -35.5v-6zM874 308q49 0 78 24t29 75q0 77 -94 77q-45 0 -107 -17q-34 -10 -49 -16q37 -143 143 -143z" />
<glyph unicode="7" horiz-adv-x="1226" d="M479 707q-294 6 -328 6q-77 0 -77 291q0 9 1.5 44.5t2.5 67.5l2 33q14 20 100 20q42 0 119 6.5t119 6.5q451 0 643 6q39 -2 63 -11t30.5 -17.5t6.5 -16.5v-328q0 -26 -12.5 -62t-29.5 -71l-55 -110q-38 -74 -69 -142q-1 -3 -10 -28l-22 -53l-31 -72q-19 -43 -49 -103 l-66 -125l-51 -94q-2 -3 -25 -42q-33 -52 -73 -93q-19 -17 -41 -17q-57 0 -163 58t-188 128t-82 103q0 9 64 144l136 285q72 151 85 186z" />
<glyph unicode="8" horiz-adv-x="1520" d="M99 383q0 96 25 158t96 105q-51 33 -81.5 96.5t-30.5 123.5q0 113 64 202q8 10 16.5 18t22 17.5t20.5 15.5q54 42 84 55q42 21 88.5 34.5t108.5 18.5t96 6t114.5 0t100.5 -1q215 0 315 -61q68 -26 116.5 -61t68.5 -67q48 -86 48 -173q0 -63 -27.5 -127t-77.5 -97 q164 -96 164 -263q0 -61 -14 -115q-33 -124 -150 -195q-50 -31 -132 -56q-38 -10 -58 -14q-15 -4 -44.5 -5.5t-39.5 -2.5q-14 -1 -41 -6t-40 -7q-57 -4 -132 -4q-113 0 -217 13q-179 23 -302 95q-4 2 -24.5 11.5t-27.5 14.5q-67 43 -88 105t-21 166zM775 546h-34 q-26 0 -41.5 -37t-15.5 -112q0 -66 6.5 -107.5t20 -60.5t27.5 -25t36 -6q19 0 31 6t24 25.5t17.5 61t5.5 106.5q0 149 -77 149zM743 1007q-19 -2 -27.5 -4.5t-25.5 -16t-25 -48t-8 -89.5q0 -46 6.5 -76t20 -43.5t27 -18t34.5 -4.5q43 0 63.5 30t20.5 112q0 51 -7 84 t-22 47.5t-26.5 19.5t-30.5 7z" />
<glyph unicode="9" horiz-adv-x="1476" d="M759 509q-126 -42 -246 -42q-153 0 -254 63q-173 99 -173 310q0 84 33 156t90 123t134 86.5t166 53t184 17.5q103 0 202.5 -24.5t189.5 -76t158 -124t108 -177.5t40 -228q0 -186 -39 -285q-51 -132 -177 -246q-211 -137 -539 -137q-130 0 -279 42q-7 3 -25 10l-28 10 q-10 3 -25 9.5t-27.5 14t-23.5 16.5q-3 2 -12.5 7t-15.5 8.5t-11.5 14.5t-6 26.5t5.5 43t19 64.5q5 13 14 34l13 29l10 23q6 14 10 18l11 13q7 8 13 9t15 3t19.5 0.5t24.5 -4.5q92 -29 174 -29q67 0 115 12.5t72.5 30.5t38.5 42.5t17.5 42t4.5 35.5v6zM602 946 q-49 0 -78 -24t-29 -75q0 -77 94 -77q49 0 107 16q34 10 49 17q-37 143 -143 143z" />
<glyph unicode=":" horiz-adv-x="784" d="M669 664q2 -13 -4.5 -20t-22 -8.5t-30 -1.5t-38 1.5t-36.5 1.5q-5 0 -28 -1t-38.5 -1.5t-26.5 0.5q-192 2 -202 2q-3 0 -17 -1.5t-21.5 -2t-21 -0.5t-21 1.5t-16.5 4.5t-13 9.5t-5 15.5q-5 41 -9 201t-11 206l12 14l65 15h121q14 0 37.5 3t34.5 3h49l14 -6q5 2 20.5 2.5 t20.5 1.5q5 -2 14 -3.5t13 -2.5l49 -6l14 -5q3 0 8 1.5t7 1.5q38 -13 48.5 -23t10.5 -37q21 -21 21 -213q8 -60 4 -91.5t-2 -61.5zM669 25q2 -13 -4.5 -20t-22 -8.5t-30 -1.5t-38 1.5t-36.5 1.5q-5 0 -28 -1t-38.5 -1.5t-26.5 0.5q-192 2 -202 2q-3 0 -17 -1.5t-21.5 -2 t-21 -0.5t-21 1.5t-16.5 4.5t-13 9.5t-5 15.5q-5 41 -9 201t-11 206l12 14l65 15h121q14 0 37.5 3t34.5 3h49l14 -6q5 2 20.5 2.5t20.5 1.5q5 -2 14 -3.5t13 -2.5l49 -6l14 -4q3 0 8 1t7 1q38 -13 48.5 -23t10.5 -37q21 -21 21 -213q8 -60 4 -91.5t-2 -61.5z" />
<glyph unicode=";" horiz-adv-x="818" d="M729 104q6 -45 6 -100q0 -73 -11.5 -142t-44 -143.5t-83 -129.5t-136 -90.5t-196.5 -35.5q-31 0 -39 2q-1 12 -5 30.5t-9.5 40t-7.5 30.5l-25 94q-3 3 -12 24t-13 25q95 18 154 87t59 108q0 8 -63.5 10.5t-128 10t-66.5 26.5q-5 41 -9 201t-11 206l12 15l107 14 q45 0 125.5 3t115.5 3l15 -6q6 2 21 2.5t20 1.5q4 -2 13.5 -3.5t12.5 -2.5l90 -6l15 -4q3 0 7 1t7 1q39 -12 49 -22t10 -38q0 -24 21 -213zM678 664q2 -13 -4.5 -20t-22 -8.5t-30 -1.5t-38 1.5t-36.5 1.5q-5 0 -28 -1t-38.5 -1.5t-26.5 0.5q-192 2 -202 2q-3 0 -17 -1.5 t-21.5 -2t-21 -0.5t-21 1.5t-16.5 4.5t-13 9.5t-5 15.5q-5 41 -9 201t-11 206l12 14l65 15h121q14 0 37.5 3t34.5 3h49l14 -6q5 2 20.5 2.5t20.5 1.5q5 -2 14 -3.5t13 -2.5l49 -6l14 -5q3 0 8 1.5t7 1.5q38 -13 48.5 -23t10.5 -37q21 -21 21 -213q8 -60 4 -91.5t-2 -61.5z " />
<glyph unicode="&#x3c;" horiz-adv-x="1158" d="M1065 252q0 -34 -67.5 -111.5t-153.5 -142t-131 -64.5q-26 0 -41 13q-44 33 -74 69q-6 7 -25 31l-71 70l-81 64q-38 32 -67 59l-52 48q-22 21 -41 41l-29 31l-21 25l-12 14q-93 125 -129.5 186.5t-36.5 100.5q0 16 7 33.5t25 44.5t35 50l54 72l65 85q135 118 283 282 l51 70q12 13 30 30q33 31 89 70q15 13 41 13q36 0 100.5 -40t123.5 -92.5t103.5 -106.5t44.5 -79q0 -6 -87 -98l-185 -192q-98 -102 -115 -123v-5q0 -21 92 -130l184 -211q91 -102 91 -107z" />
<glyph unicode="=" horiz-adv-x="1092" d="M691 712h-522q-2 0 -9.5 -0.5t-10.5 0t-9 2t-8.5 5t-6 9t-5 15t-1.5 22.5q0 41 -1.5 99.5t-1.5 98.5q0 16 5.5 31.5t10.5 15.5q43 0 128.5 3.5t134.5 3.5h223q58 0 152 -3.5t149 -3.5q13 0 21.5 -1.5t18.5 -6t15 -15t5 -26.5q0 -39 -3.5 -80.5t-3.5 -63.5q0 -56 -6 -77.5 t-31 -21.5l-53 -3q-28 -3 -72 -3h-119zM691 275h-522q-2 0 -9.5 -0.5t-10.5 0t-9 2t-8.5 5t-6 9t-5 15t-1.5 22.5q0 41 -1.5 99.5t-1.5 98.5q0 17 5.5 32.5t10.5 15.5q43 0 128.5 3t134.5 3h223q58 0 152 -3t149 -3q13 0 21.5 -1.5t18.5 -6t15 -15t5 -26.5q0 -38 -3.5 -79.5 t-3.5 -65.5q0 -56 -6 -77.5t-31 -21.5l-53 -3q-28 -3 -72 -3h-119z" />
<glyph unicode="&#x3e;" horiz-adv-x="1158" d="M93 252q0 5 91 107l184 211q92 109 92 130v5q-17 21 -115 123l-185 192q-87 92 -87 98q0 25 44.5 79t103.5 106.5t123.5 92.5t100.5 40q26 0 41 -13q56 -39 89 -70q18 -17 30 -30l51 -70q148 -164 283 -282l64 -85l54 -72q18 -23 36 -50t25 -44.5t7 -33.5 q0 -39 -36.5 -100.5t-129.5 -186.5l-12 -14l-22 -25l-28 -31q-19 -20 -42 -41l-51 -48q-29 -27 -67 -59l-81 -64l-71 -70l-25 -31q-36 -40 -74 -69q-15 -13 -41 -13q-45 0 -131 64.5t-153.5 142t-67.5 111.5z" />
<glyph unicode="?" horiz-adv-x="1135" d="M633 492h-31q-18 0 -57 2t-54 2q-17 0 -25 -4h-204q-47 0 -62 46t-15 145q0 21 0.5 60t0.5 53q0 57 31 93t72.5 52t102.5 46.5t103 69.5q19 12 38.5 33.5t19.5 37.5q0 38 -37.5 50.5t-160.5 12.5q-134 0 -233 -26q-1 -1 -5 -1q-17 0 -17 35q0 13 3.5 42t3.5 40 q4 110 11 157.5t17.5 60.5t35.5 15q114 6 228 6q99 0 180.5 -6.5t162.5 -22.5t141.5 -45.5t108 -72.5t72.5 -106.5t25 -144.5q0 -58 -32 -109t-85.5 -90t-109.5 -71l-116 -70q-61 -37 -94 -68v-30l2 -60q2 -66 2 -95q0 -37 -23 -37zM731 -118q0 -2 1 -4v-2q0 -24 -53 -24 q-12 0 -39 1.5t-40 1.5q-3 0 -34.5 -1.5t-44.5 -1.5q-37 0 -91 2t-74 2q-17 0 -50.5 -2.5t-57.5 -2.5q-53 0 -57 31q-5 37 -8.5 198t-12.5 209l13 14l65 15h121q14 0 37.5 3t34.5 3h49l14 -6q4 2 20 2.5t21 1.5q6 -4 27 -6l49 -6l14 -5q2 0 7 1.5t7 1.5q39 -12 49.5 -22.5 t10.5 -37.5q20 -23 20 -213q6 -53 6 -70q0 -13 -2.5 -27.5t-2.5 -28.5q0 -16 1 -27z" />
<glyph unicode="@" horiz-adv-x="1214" d="M1096 1013v-333q0 -115 -4.5 -191t-4.5 -109q0 -94 -40 -94q-73 0 -154 2.5t-129 2.5q-47 0 -66 13.5t-19 63.5v11q2 49 0 49q-30 -51 -61.5 -84t-63 -47t-55 -18.5t-52.5 -4.5q-168 0 -259 101.5t-91 330.5q0 83 27.5 147t69.5 101t99.5 61t109 32t105.5 8 q52 0 134 -2.5t112 -2.5q28 0 127.5 1.5t174.5 1.5q14 0 27 -13t13 -27zM693 649q-1 73 -9 130q-16 131 -61 131q-41 0 -68 -24t-36.5 -60.5t-12 -54.5t-2.5 -32q0 -282 68 -282q75 0 106 96q14 42 15 96z" />
<glyph unicode="A" horiz-adv-x="1880" d="M715 1364q12 0 107 4t93 6q3 0 27.5 0.5t54.5 0.5h70q39 0 75.5 -0.5t68.5 -1.5t53 -3.5t24 -5.5q20 0 56 5t55 5q8 0 24 -6t25 -6q4 0 9.5 1t8.5 1q7 -3 14 -10.5t7 -12.5l143 -647q60 -232 119 -508q25 -114 17 -154q-7 -34 -34 -34q-231 0 -235 4h-129q0 8 -21 8 q-1 0 -3.5 -4t-4.5 -4h-6l-11 1q-11 1 -28.5 2t-37 2t-41 2t-36.5 1q-20 33 -61 240q-22 -4 -54.5 -5.5t-57 -1.5t-66 0.5t-58.5 0.5q-42 -204 -59 -234q-7 0 -19 -4l-12 -4h-6q-8 0 -17 4t-11 4l-93 -3l-92 -5h-190q-2 0 -55 -1l-110 -2q-57 -1 -71 -1q-60 0 -18 179 q1 7 2 9q59 276 119 508l143 647q0 5 7 12.5t14 10.5q3 0 8.5 -1t9.5 -1q17 0 54 6t57 6q28 0 83.5 -5t88.5 -5zM995 1016q0 -2 -16 -91l-38 -218l-34 -201h105q6 6 14 6h4q12 0 23 -2t24 -5.5t18 -4.5l-35 202l-38 221q-15 91 -15 93l-2 8l-1 8q-1 8 -3 15q-1 -5 -5 -23 q-1 -3 -1 -8z" />
<glyph unicode="B" horiz-adv-x="1680" d="M118 1075q0 24 -1 68.5t-1 64.5q0 64 9 105q1 5 3.5 19.5t4 21.5t7 18.5t13 17.5t21 10.5t32.5 4.5q48 0 188 9t195 9q138 0 394 -32q195 -25 274 -46q263 -70 295 -255q4 -26 4 -54q0 -172 -141 -260q-16 -8 -44.5 -19.5t-47.5 -21.5t-27 -22q2 -1 3 -4t3 -4 q152 -63 223.5 -139t71.5 -156q0 -117 -134 -225t-337 -165q-237 -69 -524 -69q-116 0 -188.5 4t-132.5 15.5t-90.5 34t-46 56.5t-15.5 86q0 28 3 114.5t3 105.5q0 117 -8.5 353.5t-8.5 354.5zM817 522q-23 0 -23 -28v-164q0 -15 17 -15q6 0 6 2l325 152q3 4 10.5 8.5 t8.5 5.5q-85 25 -155.5 32t-188.5 7zM829 928v-6v-4v-4q0 -2 0.5 -3t2 -2.5t3 -2t4 -1t6.5 -0.5q12 0 123 51.5t113 51.5q1 0 7 2l9 3q3 1 6 4t3 8q0 18 -22.5 30t-57 17t-60.5 7t-49 2q-22 0 -38 -5t-25.5 -18t-14.5 -22.5t-7 -33.5t-2.5 -34t-0.5 -40z" />
<glyph unicode="C" horiz-adv-x="1384" d="M778 670q0 -55 4 -92q22 -242 172 -242q112 0 281 123l18 -336q-78 -76 -200.5 -124t-227.5 -48q-283 0 -436 72q-45 20 -78 45q-63 54 -108 129q-39 43 -66 102q-53 146 -53 342q0 233 94 408q83 169 224 264.5t321 107.5q11 2 51 2q86 0 174 -18q174 -35 344 -135 l-37 -266q-10 2 -57 14t-67 16.5t-55.5 9.5t-63.5 5q-117 0 -173 -84q-61 -92 -61 -295z" />
<glyph unicode="D" horiz-adv-x="1756" d="M767 -2q-83 0 -270.5 2t-311.5 2q-55 0 -55 125q0 45 -5.5 317t-5.5 426v451q0 19 17.5 36t36.5 17q102 0 236 -2t171 -2q68 0 238.5 3t277.5 3q52 0 102.5 -7t107.5 -26.5t107 -49t96.5 -78t79.5 -110.5t53 -150t20 -193q0 -284 -85.5 -448.5t-279 -240t-530.5 -75.5z M794 622l-11 -352q20 -2 38 0q41 2 54 15q37 37 65.5 206.5t28.5 315.5q0 34 -2 74t-9.5 119.5t-29 130.5t-53.5 51q-25 0 -51 -11q-12 -5 -18 -10q0 -78 -12 -539z" />
<glyph unicode="E" horiz-adv-x="1419" d="M116 805q0 341 17 526q0 41 151 41q114 0 300 5.5t339.5 5t317.5 -12.5q23 0 35.5 -32t23.5 -99t19 -96q1 -17 -0.5 -28t-2.5 -17t-7 -8.5t-8.5 -3t-13 0t-15.5 0.5q-78 0 -228.5 -14.5t-197.5 -17.5q-16 0 -27.5 -75.5t-11.5 -123.5q0 -27 7 -35t25 -8q21 0 88.5 0.5 t98.5 0t82.5 -2.5t93.5 -6q5 -1 18.5 -2t16 -2t11 -3.5t11 -7t6.5 -12.5t7 -20l8 -183v-6q0 -32 -62 -41.5t-176 -9.5q-42 0 -105 1q-31 1 -44.5 1.5t-32.5 -1t-25 -2.5t-15.5 -6t-11.5 -9.5t-5 -15.5t-3 -21v-29q0 -20 -4 -72t-2 -83q66 0 198 6t196 6q18 0 47.5 -103 t29.5 -137q0 -43 -41 -43q-49 0 -143.5 -4t-146.5 -4q-107 0 -323.5 -1t-324.5 -1q-13 0 -46 4t-64.5 11t-30.5 14q0 44 -11 234.5t-11 240.5q0 34 -3.5 120.5t-3.5 180.5z" />
<glyph unicode="F" horiz-adv-x="1355" d="M116 694v647q0 7 2.5 11.5t6 6.5t8 3t8 1t7.5 -1h3q37 0 189 5t258 5q4 0 60.5 -1t59.5 -1q56 0 196.5 -3t236.5 -3q14 0 31 -4.5t27.5 -4.5t21.5 9q15 0 25.5 -7.5t16 -24t8 -34.5t3 -46t-0.5 -51.5t-2 -59t-1 -60.5q0 -7 -4 -12.5t-11.5 -8.5t-15 -5t-19 -2.5t-19 -0.5 t-19 0.5t-15.5 0.5h-92q-29 0 -60 -4.5t-65 -4.5q-42 0 -49 3q-9 -4 -16 -9q-15 -70 -15 -219l-1 -3q-1 -2 0.5 -8t6.5 -11h41h205q42 0 52 -28t10 -130q0 -146 -5 -165q-5 -20 -25 -20q-12 0 -77 -4t-90 -4q-18 0 -27.5 -1.5t-22 -4t-28.5 -4.5q-22 -3 -37.5 -1t-30 -4 t-26.5 -23q0 -96 -0.5 -142.5t-2.5 -108.5t-7.5 -95.5t-14.5 -51.5q-17 0 -40 -1l-44 -2q-22 -1 -41.5 -2t-31.5 -2t-13 -1q-14 -2 -24 3t-14 5q-9 0 -17 -8h-170q-4 -4 -88 -14.5t-106 -10.5q-19 0 -32.5 15.5t-18.5 42t-7.5 48.5t-3 50t-0.5 33q-4 58 -7.5 165.5t-9 197.5 t-16.5 165z" />
<glyph unicode="G" horiz-adv-x="1694" d="M1592 291q0 -251 -18 -285q-10 0 -23 -0.5t-30 -1.5t-26 -1l-46 -3h-6q-15 0 -20 3q-3 1 -3 3l-6 -2q-6 -2 -6 -4h-203q-1 0 -33 -1t-39 -1q-16 0 -24 41.5t-15 128.5q-21 -102 -127 -158.5t-256 -56.5q-87 0 -171.5 24t-167 79.5t-145.5 137t-101.5 208t-38.5 280.5 q0 140 41 259t116 207t178.5 150.5t229.5 93.5t268 31q262 0 539 -133l-78 -348q-17 4 -61 16.5t-69 19t-63 14.5t-70 12t-62 4q-62 0 -108.5 -15t-86 -51.5t-60 -104.5t-20.5 -167q0 -314 176 -314q57 0 123 29q-7 226 -7 282v12q0 57 5.5 66.5t37.5 8.5h21h217q32 0 83 1 q107 1 134 -8t27 -57q0 -3 1 -35t1 -94v-209q0 -2 -4 -31t-4 -30z" />
<glyph unicode="H" horiz-adv-x="1905" d="M1060 954l3 140q4 95 4 154q0 73 8 88q11 24 66 26h22q26 0 271.5 5t269.5 5q51 0 70 -14t19 -65q0 -83 -6.5 -215.5t-6.5 -213.5q0 -8 2.5 -21.5t2.5 -19.5l-48 -776q0 -13 -16 -30t-31 -17h-563q-27 0 -33 109l-22 376q-1 0 -107 4.5t-112 4.5q-15 0 -15 -35 q0 -340 -9 -400q-8 -51 -33 -58q-9 -3 -33 -3q-133 -9 -222 -10q-237 -6 -364 26q-9 2 -16 24t-7 32l-39 745v19v20q0 65 6.5 266t10.5 205q50 50 94 47h117q5 0 204.5 -3t202.5 -3q52 0 73.5 -16.5t21.5 -69.5q0 -7 -4.5 -53.5t-4.5 -57.5q0 -5 3 -18t3 -21q0 -26 -2 -78 t-2 -83q30 0 109 -7.5t113 -7.5z" />
<glyph unicode="I" horiz-adv-x="984" d="M857 408q-1 -40 -2 -104t-2 -102t-3 -81t-6.5 -70t-11.5 -41q-17 0 -40 -1l-46 -2q-22 -1 -41 -2t-31 -2l-12 -1h-6q-9 0 -18.5 4t-14.5 4l-8 -3l-8 -5h-190q-14 -4 -236 -4q-62 0 -61 181v7q1 30 2.5 220.5t5.5 287.5v647q0 10 5 15t10.5 5.5t15.5 0.5h4q68 0 203.5 1 t205.5 1q4 0 24 3.5t55 3.5t89 -7q4 -4 9 -5t7 -1t9 3t8 3q32 0 47.5 -3.5t28 -19t16.5 -45.5t4 -85v-400q0 -1 -6 -200t-6 -203z" />
<glyph unicode="J" horiz-adv-x="1344" d="M1102 133q-103 -95 -267 -148q-78 -24 -143 -34q-303 -41 -555 63l-90 41q-1 19 0 32t5.5 51.5t6.5 58.5q0 55 11 104q3 8 4 8q106 -38 171.5 -50.5t157.5 -10.5q18 0 32.5 10.5t24 31t15 35.5t11.5 39l7 29q7 110 7 228l3 211q1 32 1 88l-2 421q0 11 6.5 16t10.5 5h17 q68 0 204 1t206 1h201q32 0 47.5 -3.5t28 -19t16.5 -45.5t4 -85v-400q0 -2 -4 -103t-4 -106q0 -75 -3.5 -126.5t-15 -120.5t-40.5 -124.5t-74 -97.5z" />
<glyph unicode="K" horiz-adv-x="1750" d="M823 1376q10 0 17.5 -3t11.5 -9t6.5 -12t3.5 -16.5t1 -17t-0.5 -18t-0.5 -16.5q1 -57 -4.5 -153.5t-5.5 -126.5q17 0 28 3.5t15.5 6t16.5 14.5l18 19q7 5 107 100l200 184q101 89 125 92q5 0 16.5 -12t23 -26t15.5 -17q2 -5 38.5 -38.5t41.5 -41.5q11 -18 59.5 -81 t65.5 -99v-4q0 -24 -26 -56.5t-63.5 -67.5t-45.5 -46q-8 -4 -97.5 -81t-97.5 -81q-9 -8 -22 -13.5t-18 -11.5t-5 -20q0 -23 12.5 -41t41 -41t34.5 -29q9 -9 107.5 -96t166.5 -158t68 -100q0 -24 -16 -39q-23 -19 -75 -51t-75 -51l-34 -30q-26 -23 -46 -38.5t-39 -25.5 q-23 -12 -87 -51q-30 -18 -57.5 -20t-45.5 9.5t-27 19.5t-13 15l-216 248q-9 16 -46.5 56t-47.5 40q-17 0 -17 -16q0 -20 -3 -127t-3 -125q0 -6 0.5 -15.5t0.5 -14t-0.5 -11.5t-2 -9.5t-4.5 -7t-8.5 -4.5t-13.5 -2.5t-19 0.5q-63 -4 -129 -4.5t-154 1t-131 1.5h-26 q-16 0 -33 0.5t-32 1t-25 0.5h-11l-92 8l-6 17q-1 0 -3.5 77t-5.5 180t-3 157q-17 243 -17 307q0 5 3.5 57t3.5 59q0 6 -3.5 41t-3.5 39q0 7 3.5 63t3.5 62q0 22 -3.5 126t-3.5 110q-1 12 1 21t8 15.5t12 11.5t18 7.5t19.5 4.5t22 2.5t21.5 0.5h22h18q153 0 281 -0.5 t199.5 -1t86.5 -0.5z" />
<glyph unicode="L" horiz-adv-x="1281" d="M122 57v451q0 49 -0.5 190t-0.5 213t2.5 165.5t8.5 144.5q0 88 10 117q13 38 45 38q126 0 264.5 -3t212.5 -3h17q31 0 45.5 -0.5t34.5 -5.5t28 -16t14.5 -31t6.5 -51q0 -4 -5.5 -47t-5.5 -48q0 -7 2.5 -31.5t5.5 -47t3 -23.5q2 -139 2 -545v-8q0 -26 6 -32.5t37 -6.5 q45 0 151.5 1t167.5 1q21 0 36 -13t15 -28v-393q0 -6 -1 -10t-8 -11.5t-21 -12t-43 -8t-70 -3.5h-299q-115 0 -305 2t-303 2q-18 0 -35.5 17.5t-17.5 35.5z" />
<glyph unicode="M" horiz-adv-x="2078" d="M1063 889q2 7 86 188.5t92 202.5q15 32 38.5 64t32.5 32q13 0 79.5 0.5t181 1t245.5 0.5q22 0 51.5 -1t71.5 -1q19 0 19 -618q0 -94 -17 -307q0 -55 2 -157l4 -180q1 -77 2 -77l-6 -17l-92 -22h-25q-24 -1 -55 -1.5t-47 -0.5q-91 0 -311 16q-1 0 -9.5 -1t-13.5 -1 q-30 0 -30 482q0 16 -17 16q-3 0 -10 -12.5t-16 -35.5l-16 -43l-17 -48q-10 -27 -14 -37q-2 -3 -20 -40.5t-38.5 -75t-53.5 -69.5t-65 -32q-119 0 -157 4q-67 105 -115 204t-64.5 142t-21.5 43q-16 0 -16 -16v-50q0 -94 -0.5 -147.5t-3 -131t-9.5 -115.5t-18 -38 q-5 0 -13.5 1t-9.5 1q-216 -16 -311 -16q-16 0 -47 0.5t-55 1.5h-25l-92 22l-6 17q-2 0 -4.5 73.5t-5 186.5t-3.5 154q1 38 6 186.5t5 236.5q0 6 -3 41t-3 39q0 37 5 106t5 128q0 8 -2 55t-2 55q-6 6 -6 15q0 21 16.5 35t42 20t45 8t37.5 2q131 0 246 -0.5t181 -1t79 -0.5 q19 0 71 -96q3 -7 43 -111l75 -190q35 -86 40 -90q13 -33 31 -33q19 0 33 33z" />
<glyph unicode="N" horiz-adv-x="1787" d="M1665 459q0 -338 -9 -398q-7 -52 -32 -60q-10 -3 -35 -3l-352 2h-21q-4 0 -22 -1t-31 -0.5t-31.5 3.5t-36 12t-31.5 23l-208 293q-79 136 -95 136t-16 -16q0 -29 -3 -191t-3 -183q0 -6 0.5 -15.5t0.5 -14t-0.5 -11.5t-2 -9.5t-4.5 -7t-8.5 -4.5t-13.5 -2.5t-19 0.5 q-218 -16 -312 -16q-15 0 -46 0.5t-55.5 1t-25.5 0.5l-92 22l-6 17q-1 0 -4 77.5t-5.5 178.5t-2.5 158q-14 123 -14.5 267.5t3.5 309.5t1 270q-9 47 20.5 63.5t78.5 16.5q107 0 235 8t180 7.5t65 -17.5q47 -64 334 -495q1 41 3.5 168t4.5 199.5t6 76.5q50 50 95 47h116 q6 0 153.5 -3t151.5 -3q52 0 73.5 -16.5t21.5 -69.5q0 -7 -4.5 -53.5t-4.5 -57.5q0 -5 3.5 -18t3.5 -21q0 -26 -2 -333.5t-2 -337.5z" />
<glyph unicode="O" horiz-adv-x="1759" d="M897 -49q-74 0 -132.5 2.5t-128.5 11t-124.5 23.5t-113 41t-101.5 62t-83 88t-65 117.5t-40 153t-15 191.5q0 417 192.5 599.5t630.5 182.5q68 0 135.5 -8.5t143 -30t141.5 -55t128 -88.5t105.5 -125.5t70 -170t26.5 -218.5q0 -139 -19 -249.5t-53 -191t-87 -140 t-114.5 -96.5t-143.5 -59.5t-165.5 -31t-187.5 -8.5zM788 670q0 -523 92 -523q95 0 95 564q0 46 -2 101.5t-9.5 165.5t-29 180.5t-54.5 70.5q-22 0 -38.5 -22t-26 -70t-15.5 -91.5t-8.5 -121.5t-3 -123.5t-0.5 -130.5z" />
<glyph unicode="P" horiz-adv-x="1719" d="M119 870v451q0 19 17 36t36 17q102 0 236 -2t171 -2q68 0 238.5 3t277.5 3q75 0 145.5 -11t149.5 -43t137 -82t96 -136.5t38 -198.5q0 -158 -40 -271.5t-117.5 -180t-180 -97t-236.5 -30.5h-280v-213q0 -68 -25.5 -86.5t-87.5 -18.5q-88 0 -233 -3t-277 -3q-55 0 -55 125 q0 45 -5 317t-5 426zM823 578q0 -2 11 -4q11 -3 81 -3q94 0 94 379q0 19 -2 44t-9.5 74.5t-29 81.5t-53.5 32q-59 0 -81 -302q-11 -140 -11 -302z" />
<glyph unicode="Q" horiz-adv-x="1718" d="M1636 727q0 -217 -46.5 -367t-127.5 -232.5t-203 -125.5q136 -177 136 -225q-1 -25 -32 -49.5t-80 -50.5t-63 -37q-5 -1 -33 -10t-44 -13q-9 -6 -77.5 -25.5t-76.5 -17.5q-1 -5 -5 -7.5t-8 -2.5h-3q-21 0 -70 49l-3 7q-2 3 -3.5 4l-1.5 1h-3h-1q-9 7 -13 13l-161 266 q-12 23 -31 53q-108 8 -193 28t-168.5 68t-138.5 120.5t-89 191.5t-34 276q0 417 192.5 599.5t631.5 182.5q68 0 135 -8.5t142.5 -30t141.5 -55t128 -88.5t105.5 -125.5t70 -170t26.5 -218.5zM758 670q0 -523 92 -523q94 0 94 564q0 46 -2 101.5t-9.5 165.5t-29 180.5 t-53.5 70.5q-22 0 -38.5 -22t-26 -70t-15.5 -91.5t-8.5 -121.5t-3 -123.5t-0.5 -130.5z" />
<glyph unicode="R" horiz-adv-x="1787" d="M1150 -27q-4 15 -11 15q-3 0 -12 10l-174 258q-14 24 -41.5 62t-36.5 38q-14 0 -16.5 -86t-7 -172t-23.5 -86q-6 0 -15 1l-9 1q-331 -18 -428 -18q-15 0 -47.5 0.5t-58.5 1.5h-26l-73 25l-8 16q-1 1 -14 166.5t-19 261.5q-17 253 -17 317q0 7 4.5 61t4.5 60 q0 44 -5.5 127t-5.5 129q0 113 16 178.5t60 65.5q245 0 938 -19q133 -4 235.5 -38.5t163 -91.5t91 -127t30.5 -150q0 -174 -117 -291q-50 -50 -116 -82l32 -28q50 -42 56 -46l51 -63l79 -97q35 -44 66 -93t31 -68q0 -25 -30 -50.5t-77.5 -53.5t-62.5 -41q-10 -5 -46 -25 t-63 -32t-55 -21q-2 -1 -13 -5q-143 -50 -140 -42q-5 -11 -17 -11q-27 0 -73 43zM831 659l6 -3q7 -3 45 -3q145 0 145 297q0 10 -1 22.5t-4.5 43t-13 56t-24.5 52.5t-41.5 42.5t-60.5 15.5q-35 0 -45 -262q-5 -116 -6 -261z" />
<glyph unicode="S" horiz-adv-x="1476" d="M1372 412q-9 -97 -52 -175.5t-108.5 -130.5t-151.5 -88t-179 -51.5t-193 -15.5q-151 0 -293.5 33t-239.5 92q-35 112 -67 360v6q6 26 26 37q78 -48 150 -71t158 -23q5 0 36.5 -1.5t53 -0.5t50.5 4.5t48 15.5t27 31q-30 16 -82 41l-88 43q-35 18 -83 46t-80.5 53t-68 61 t-56.5 74t-34.5 88t-13.5 106q0 83 22.5 151.5t61 117t93.5 86t115 60t131.5 37t137 20t137.5 5.5q97 0 189.5 -11t179 -26.5t127.5 -19.5q7 -2 18 -16t17 -15q2 0 2 1t2 1q1 -24 8.5 -100t7.5 -119q0 -105 -45 -133l-188 23q-4 0 -20 1t-29 1q-41 0 -103.5 -7.5 t-106.5 -16.5t-44 -13q0 -79 163 -135q155 -44 264 -150.5t109 -210.5q0 -34 -8 -65z" />
<glyph unicode="T" horiz-adv-x="1479" d="M388 899q0 1 -8 6h-226q-77 0 -77 291q0 9 0.5 35.5t1.5 49t1 23.5q0 44 103 44q50 0 154 -2t154 -2h737q87 0 127.5 -7.5t47.5 -17.5t7 -34v-339q0 -32 -55 -32q-37 0 -131.5 0.5t-133.5 0.5q-12 0 -15.5 -1.5t-6 -11.5t-2.5 -36q0 -278 -22 -563v-197q0 -17 -1 -30 t-5 -23l-6 -16q-3 -7 -11 -12l-13 -8q-4 -3 -17 -5.5t-18 -3t-23 -2t-25 -2.5q-74 0 -213.5 -3t-259.5 -3q-23 0 -38 25t-22.5 76.5t-10.5 111t-2.5 147t2.5 166t4.5 186t2.5 189.5z" />
<glyph unicode="U" horiz-adv-x="1813" d="M1029 72q-238 -119 -486 -119q-86 0 -153.5 18.5t-112.5 47t-76.5 79t-48.5 97t-26 120t-11 129.5t-2 142q0 106 13.5 330t13.5 344q0 16 -4 43t-4 43q0 34 69 34q25 0 94 0.5t105 0t94.5 -2.5t109.5 -8t101 -16q57 -16 72.5 -42.5t15.5 -105.5q0 -93 -7 -348.5 t-7 -443.5q0 -84 6.5 -114t32.5 -30q50 0 120 30q28 12 58 30v823q-10 55 -10 145q0 39 14.5 51.5t67.5 12.5q42 0 153.5 5t149.5 9q2 0 12 -0.5t26.5 -1.5t30.5 -1l62 -3q88 -10 133.5 -22t54.5 -21.5t9 -23.5q0 -207 -12.5 -608.5t-12.5 -606.5q0 -42 -18 -62t-58 -20 q-18 0 -57.5 -1.5t-99.5 -3.5t-98 -3q-34 -2 -101 -4.5t-92 -3.5q-52 0 -80.5 19t-40.5 63z" />
<glyph unicode="V" horiz-adv-x="1880" d="M1288 10q-230 -10 -745 -10q-20 0 -57 6t-54 6q-4 0 -9.5 -1t-8.5 -1q-7 3 -14 10.5t-7 12.5l-143 647q-60 232 -119 508q-1 6 -6.5 33t-8.5 50t-4 49t8 41t27 15q14 0 72 -1l110 -2q52 -1 54 -1h190q0 -1 10 -5l11 -3q5 0 12 4t16 4h7l14 -1q14 -1 35.5 -2t46 -2 t51.5 -2t47 -1q13 -22 26 -76t33 -157.5t33 -163.5q0 -5 40 -204t40 -200q0 -5 1 -8q4 -20 5 -23q2 5 3 14l1 9l2 8q0 1 40 200t40 204q13 60 33 163.5t33 157.5t26 76q15 0 36.5 1t41 2t37 2t28.5 2l11 1h6q2 0 4.5 -4t3.5 -4q21 0 21 8h129q4 4 235 4q11 0 18.5 -5 t11 -14.5t6 -20.5t1.5 -26.5t-2 -27.5t-4 -29t-5 -26l-5 -23q-3 -14 -4 -16q-59 -276 -119 -508l-143 -647q0 -5 -7 -12.5t-14 -10.5q-3 0 -8.5 1t-9.5 1q-9 0 -25 -6t-24 -6q-19 0 -55 5t-56 5z" />
<glyph unicode="W" horiz-adv-x="2397" d="M1474 10q-20 0 -60 1t-58 1l-19 -2q-20 4 -20 23l-138 676l-135 -676q-8 -33 -67 -33q-35 0 -94 -1t-95 -1q-76 0 -166 1t-153 1q-11 0 -35 6t-35 6l-18 -2q-21 4 -21 23l-143 647q-78 389 -98 508q-21 18 -21 127q0 61 37 61q14 0 71.5 -1t109.5 -2t54 -1h89 q13 -1 17 -5l3 -3q3 0 12 4t17 4h6q1 0 12 -1t28 -2t36 -2l41 -2q21 -1 36 -1q13 -24 26 -82t34 -176t33 -180q0 -4 19 -111t19 -108l2 -9q2 -12 5 -22q1 4 4 22l2 9q0 1 19.5 108t19.5 111q61 316 83 394q5 21 11 30.5t31.5 17.5t74.5 8q174 0 209 -2q1 0 5 1t6 1 q16 0 16 -4q107 -1 130 -5q18 -2 19 -3q2 0 12.5 4t22.5 4h4q5 1 11 1h14q8 0 16 -0.5t14.5 -1.5t11 -3t5.5 -5q8 -28 27 -163.5t41 -232.5q0 -5 19 -142.5t19 -138.5l2 -8q4 -20 5 -23q2 5 3 14l1 9l2 8q0 1 19.5 138.5t19.5 142.5q13 60 33 163.5t33 157.5t26 76 q33 0 58 4l34 4h6q2 0 4.5 -4t3.5 -4q21 0 21 8h108q0 4 236 4q37 0 37 -61q-21 -47 -21 -127q-63 -296 -139 -570l-143 -585q-21 -7 -21 -23l-18 2q-10 0 -25 -1.5t-24 -1.5q-61 0 -221.5 0.5t-217.5 0.5z" />
<glyph unicode="X" horiz-adv-x="1871" d="M872 256l-63 -141l-41 -68l-49 -45q0 2 -11 4l-10 2l-6 -2q-5 -3 -13.5 -6.5t-17.5 -6.5t-17.5 -4.5t-12.5 -0.5q-24 5 -205 7t-256 13h-8q-9 0 -13 4.5t-5 8.5t0 13t1 11q0 30 56 133.5t100 173.5q15 23 105 203l81 166l-21 35q-23 38 -40 71q-7 7 -117 186.5 t-115 184.5q-1 2 -9 14l-12 17q-5 6 -13 20l-14 22q-6 9 -13.5 22.5t-11.5 24.5l-10 22q-5 12 -7 22.5t-2 19.5l27 4q6 1 13.5 2t11.5 2l3 1q4 0 269.5 -11.5t271.5 -11.5q21 0 108.5 -144t100.5 -175q0 -7 4.5 -17t9.5 -17t7 -7l12 11q14 14 24 30q12 30 101 174.5 t108 144.5q7 0 272.5 11.5t268.5 11.5l4 -1q3 -1 10 -2t13 -2l28 -4q0 -33 -31.5 -81.5t-60.5 -81.5q-5 -5 -115 -195.5t-116 -196.5q-22 -32 -53 -71q-13 -18 -29 -35l64 -119l32 -59l33 -59q12 -23 18 -31q62 -103 138.5 -246t76.5 -182q0 -2 1 -11t0.5 -13t-5 -8.5 t-12.5 -4.5h-8q-41 0 -151.5 2.5t-188 2.5t-101.5 -5q-4 -1 -12.5 0.5t-17.5 4.5t-17.5 6.5t-13.5 6.5l-6 2q-17 0 -23 -6l-47 45v16q0 3 -1.5 3.5t-4.5 -1t-7.5 0t-8.5 6.5l-103 184q-14 31 -38 72t-33 41z" />
<glyph unicode="Y" horiz-adv-x="1678" d="M939 -195v13q-5 0 -10 -2t-6 -2q-5 0 -8 3t-9 15q-51 6 -164 39q-2 1 -27 3.5t-28 4.5q-73 17 -191 63.5t-118 71.5q0 48 57 164q4 10 45 76t41 94q0 27 -33.5 62.5t-33.5 60.5q-5 0 -7.5 -1t-3.5 -1q-4 0 -8 8q-56 73 -135 201t-137 244q-25 48 -65 150t-40 132 q0 40 125 96q39 5 82.5 22t50.5 17q17 0 103 21.5t149 42.5q4 0 6 1q2 0 5 0.5t4 0.5q36 0 55 -18.5t41 -61.5q9 -17 34.5 -49t28.5 -37q12 -17 46.5 -77.5t61.5 -99t40 -38.5q5 0 16 16t26 44l29 59l32 70l29 66l25 57q12 30 15 36q5 18 8 26t9 19t16 15t24 4 q104 0 277 -67t227 -138q0 -55 -25 -103l-376 -833l-6 -3q-4 -2 -5 -3l-248 -475q-4 -9 -24 -9z" />
<glyph unicode="Z" horiz-adv-x="1439" d="M146 57v377l221 225q90 92 156 171.5t66 101.5q0 8 -11 8l-389 6q-78 0 -78 250q0 10 1.5 45.5t3.5 67.5l1 32l11 11q14 14 41 14q8 0 25 -2t24 -2q50 0 149.5 6t149.5 6q98 0 291.5 3t296.5 3q217 0 217 -45v-327q0 -142 -434 -592q89 0 134 1q39 0 121 0.5t117 0.5 q19 0 35 -14t16 -27v-332q0 -6 -1 -10t-8 -11.5t-21 -12t-43 -8t-70 -3.5h-360q-115 0 -305.5 2t-303.5 2q-18 0 -35.5 17.5t-17.5 35.5z" />
<glyph unicode="[" horiz-adv-x="1133" d="M125 575v367v100q0 38 -4 144t-4 149q0 10 1.5 51t3.5 78l1 37l10 10q44 -4 90 -4q39 0 108 3t109 3q96 0 210.5 3.5t223.5 3.5q18 0 80 -18t62 -27v-267q0 -14 -13.5 -29t-27.5 -18q-52 17 -156 17q-28 0 -51 -11q-23 -76 -23 -239q0 -7 -0.5 -12t-0.5 -12t-0.5 -46 t-0.5 -106l-5 -19q-5 -19 -5 -22q0 -9 5 -32t5 -24q0 -67 0.5 -106t0.5 -46t0.5 -12t0.5 -12q0 -163 23 -239q23 -11 51 -11t78 -2t78 -2q11 0 26 -10t15 -16v-267q0 -8 -59.5 -16t-82.5 -8q-40 0 -182 -2t-252 -2q-38 0 -108 8t-109 8q-46 0 -90 -4l-10 10q0 1 -1.5 33 t-3 67.5t-1.5 45.5q0 42 4 148.5t4 144.5v210z" />
<glyph unicode="\" horiz-adv-x="1120" d="M333 408q0 4 -64.5 203t-64.5 200t-54 147l-53 144q-63 282 29 282l18 -6l8 2q7 2 7 4h36q13 9 52 9q1 0 18.5 -4.5t20.5 -4.5t8.5 3.5t5.5 5.5q8 0 32 1t40 1t34 -2.5t27 -8.5q9 0 25 5.5t26 5.5q24 0 67.5 -6.5t63.5 -6.5q4 0 8 1t9 1q0 -2 11 -10t11 -12l217 -668 l150 -528q1 -2 4 -16l5 -22q2 -10 5 -26.5t4.5 -29t2.5 -28t-1.5 -26.5t-6 -21t-11.5 -15t-19 -5q-104 0 -112 5h-232l-2 1q-1 1 -3 2l-4 2l-9 3q-5 0 -13.5 -4t-17.5 -4h-6l-23 2q-24 2 -55.5 4t-52.5 2q-12 14 -24.5 41.5t-27.5 74.5l-26 84l-32 108z" />
<glyph unicode="]" horiz-adv-x="1133" d="M1007 942v-367q0 -105 4.5 -263t4.5 -240q0 -28 -3.5 -66t-7.5 -63t-6 -27h-10q-59 0 -153.5 -6t-143.5 -6h-54q-140 0 -207.5 0.5t-154.5 3t-123 8.5t-36 16v267q0 4 69.5 7t126.5 3q20 0 35 14.5t23 44.5t13 61t6 78.5t1 82t-1 87t-1 78.5q0 4 5 84t5 115q0 2 -5 20 t-5 21q-8 100 6 248q1 17 -0.5 25.5t-7.5 11t-12.5 2t-22.5 -2t-29 -1.5h-165q-16 0 -28.5 8.5t-12.5 21.5v267q0 9 61.5 27t79.5 18q115 0 279.5 -6.5t371.5 -6.5q46 0 90 4l10 -10l1 -37q2 -37 4 -78t2 -51q0 -73 -4.5 -209t-4.5 -184z" />
<glyph unicode="^" horiz-adv-x="1241" d="M324 1229h165q1 0 26 -1l49 -1q24 0 23 0h284q6 0 16.5 1t15.5 1h13q12 -5 12 -16l125 -419q31 -120 78 -331q0 -2 4 -20t6 -32.5t2 -31.5t-6 -27t-19 -10q-8 0 -45 1t-71 1l-35 1h-86q0 6 -12 6l-2 -3q-2 -3 -4 -3h-1l-18 1q-19 2 -43.5 3.5t-39.5 1.5q-8 14 -17 49.5 t-22 101.5t-22 106q0 2 -26 154.5t-26 153.5q0 3 -1 5l-3 15q-9 -25 -11 -48q-2 -14 -1 -22q0 -1 -22.5 -128t-22.5 -130q-41 -231 -57 -257l-81 -3l-45 -3h-4q-8 0 -13 3t-6 3l-7 -2q-6 -1 -6 -4h-94q-1 0 -35 -0.5t-71 -1.5t-46 -1q-41 0 -12 121q36 169 78 331l124 419 q0 11 12 16z" />
<glyph unicode="_" horiz-adv-x="1206" d="M295 192h471h102q29 0 65 -4l48 -3q69 0 87 -25t18 -87q0 -39 3 -107.5t3 -132.5q0 -55 -135 -55q-49 0 -150 1t-163 1h-190q-55 0 -147 1t-137 1q-18 0 -36 17.5t-18 35.5q0 58 1.5 147.5t1.5 149.5q0 11 3 20.5t10 15.5t14 10.5t19 7.5l21 4q10 2 26.5 2t26.5 0.5 t28.5 0t27.5 -0.5z" />
<glyph unicode="`" horiz-adv-x="866" d="M315 1556q-26 47 -65 137t-66 138q-41 64 -95.5 160t-51.5 102q0 15 13.5 22.5t55.5 16.5q4 0 8 -1t7 -1l14 4l88 6q3 1 12 2.5t13 3.5q5 -1 20.5 -1.5t22.5 -2.5l12 6q32 0 112 -3t132 -3l88 -14l16 -14q43 -156 74 -316q4 -41 25.5 -196t21.5 -236q0 -61 -39 -61 q-19 0 -56 1t-55 1h-59l-8 6l-14 -8q-14 2 -76 2q-17 0 -43.5 42.5t-60.5 114t-46 92.5z" />
<glyph unicode="a" horiz-adv-x="1652" d="M631 1167q71 0 144.5 5.5t158.5 5.5q13 0 133 -3.5t137 -3.5q8 0 21.5 -4t21.5 -4h16q17 -6 17 -20l145 -541q57 -218 105 -440q1 -3 4 -19l5 -28q3 -13 5.5 -31.5t1.5 -32t-3.5 -26.5t-10 -20t-19.5 -7q-198 0 -202 4h-113q0 8 -16 8q-1 0 -4 -4t-5 -4h-6l-24 2 q-24 2 -56.5 4t-52.5 2q-20 37 -53 207q-19 -4 -47 -5.5t-49.5 -1.5t-56.5 0.5t-50 0.5q-36 -170 -53 -201q-5 0 -15.5 -4t-11.5 -4h-4q-8 0 -16 4t-11 4l-80 -3q-16 -1 -37 -2t-32 -2l-10 -1h-166q-1 0 -47 -1l-95 -2q-49 -1 -61 -1q-11 0 -18.5 7t-10 20t-3 26.5t2 32.5 t4.5 31t5 28t4 19q52 243 104 440l139 545q0 5 5.5 11.5t11.5 8.5h16q15 0 40 4.5t42 4.5q25 0 73 -4.5t77 -4.5zM874 883q0 -1 -14 -79l-32 -190l-29 -176h90q6 6 12 6h4q9 0 57 -10l-29 177l-33 192q-13 78 -13 80l-2 6l-5 20l-5 -20q-1 -3 -1 -6z" />
<glyph unicode="b" horiz-adv-x="1439" d="M117 900q0 129 7 201q2 1 10 10t10 11q29 29 72 59q52 -2 151.5 6t141.5 8q95 0 329 -26q176 -23 250 -46q228 -68 228 -249q0 -52 -9 -94q-12 -36 -45 -73.5t-65 -51.5q-3 -3 -38 -18.5t-36 -16.5q-14 -6 -27 -19l7 -8q64 -27 104.5 -51t77.5 -59.5t54 -84.5t17 -114 q0 -29 -2 -31l-6 -12q-3 -6 -36 -40.5t-50 -47.5q-19 -17 -44 -30.5t-38.5 -18.5t-50.5 -17q-155 -62 -172 -67q-109 -16 -252 -27q-26 -6 -86 -6q-1 0 -7 -3.5t-7 -3.5h-54h-57q-13 0 -49 0.5t-54.5 2.5t-47.5 4.5t-53 7t-48 10.5l-65 29q-6 2 -12.5 2.5t-8 2.5t-4.5 7.5 t-8 20.5q-13 35 -15 81t1 103t2 82q-15 358 -15 567zM765 442h-66q-20 0 -20 -29v-139q0 -8 14 -8q6 0 6 2l272 127l15 12q-31 10 -33 12q-16 2 -83 12.5t-105 10.5zM705 780v-4v-5q0 -1 0.5 -3.5t1.5 -3.5t3 -2t5 -1h5q2 0 10 2t10 2q174 82 178 82l21 12 q-16 21 -68.5 34.5t-87.5 13.5q-23 0 -38.5 -7.5t-23.5 -16t-11.5 -30t-4 -33t-0.5 -40.5z" />
<glyph unicode="c" horiz-adv-x="1217" d="M683 573q0 -288 151 -288q85 0 240 104l20 -291q-68 -66 -174 -106.5t-198 -40.5q-56 0 -100.5 2.5t-99 10t-98 20t-90 35.5t-82 54t-68 76.5t-53.5 102t-33.5 132t-12.5 165.5q0 159 46 289t126.5 215t188.5 130.5t233 45.5q216 0 446 -133l-28 -232q-6 2 -33 9l-38 9 q-10 2 -34 7.5t-38.5 7.5t-33.5 4t-36 2q-45 0 -79 -14.5t-62.5 -49.5t-44 -102t-15.5 -164z" />
<glyph unicode="d" horiz-adv-x="1538" d="M674 -1q-70 0 -231.5 2t-268.5 2q-47 0 -47 107q0 38 -4 272t-4 367v387q0 15 14.5 30t30.5 15q88 0 203 -2t147 -2q58 0 204.5 3t239.5 3q63 0 124.5 -12.5t129 -49t117 -93t82.5 -153.5t33 -221q0 -122 -17 -215t-55.5 -167.5t-97.5 -125t-146 -84t-198 -48.5t-256 -15 zM688 232q16 -2 33 0q33 2 47 13q32 33 56 178t24 270q0 29 -1.5 63.5t-8 103t-24.5 112t-46 43.5q-20 0 -45 -9q-13 -6 -15 -8q0 -134 -10 -464q-6 -210 -10 -302z" />
<glyph unicode="e" horiz-adv-x="1295" d="M116 698q0 292 15 449q0 38 168 37h14q59 0 174 -5t174 -5q11 0 30 1t30 1l12 -9q103 23 313 23q5 0 10 -8h64q14 0 23.5 -12.5t15.5 -35t10 -46.5l9 -56q6 -31 12 -53q0 -57 -21 -57q-1 0 -7 4t-7 4q-10 2 -25.5 -3t-23.5 -5q-9 0 -20.5 4t-18.5 4q-14 0 -47.5 -7 t-40.5 -8q-24 -3 -63 -1.5t-85.5 -2.5t-62.5 -16v6q-16 0 -25.5 -59t-9.5 -99q0 -23 6.5 -30.5t22.5 -7.5q14 0 20 6q13 0 23 -6h174q6 6 14 6q14 2 33.5 -5.5t21.5 -7.5q6 -1 17.5 -2t14.5 -1.5t9.5 -3t9.5 -6.5t6.5 -11.5t6.5 -18.5l43 -135q3 -17 -13 -28t-50 -15.5 t-66.5 -6t-81.5 -1.5h-90h-25h-42q-12 0 -27.5 -2.5t-21 -8t-9.5 -15t-4 -25.5q0 -12 1 -16q0 -5 1 -7q0 -5 -0.5 -12.5t-1.5 -17t-1 -14.5l-3 -25q0 -14 1 -40.5t1 -29.5q62 0 187.5 6t186.5 6q7 0 11 -13.5t7 -36.5t5 -30q3 -14 10 -40t9.5 -45.5t2.5 -49.5 q0 -1 -0.5 -5.5t-0.5 -7.5q-1 -3 -1 -9l-14 -15q-3 -1 -8 -1q-4 -1 -12 -1q-16 0 -28.5 4.5t-14.5 4.5q-3 0 -14 -6t-13 -9v10q-3 0 -24.5 -1t-30.5 -1q-4 0 -14.5 3.5t-14.5 3.5q-75 0 -106 -15h-37h-613q-4 0 -17.5 28t-19.5 50q-36 61 -36 371q0 27 -3.5 95.5t-3.5 145.5 z" />
<glyph unicode="f" horiz-adv-x="1222" d="M116 575v584q0 3 5 10.5t10 10.5q3 0 8 -1t8 -1q16 0 47 5t49 5q25 0 78 -4t82 -4l8 6h90q6 -6 15 -6q2 0 18 3t17 3q20 0 28 -6h469q6 -6 15 -6q1 0 7 3t7 3q45 0 65.5 -74t20.5 -182q0 -6 -3.5 -11t-10 -7.5t-13.5 -4t-17.5 -2t-17 -1t-17 0t-13.5 0.5h-82 q-26 0 -54 -4t-59 -4q-40 0 -45 2l-14 -8q-12 -52 -12 -197l-1 -2q-1 -2 0 -7.5t7 -10.5h37q70 0 137 -13t86 -43q16 -25 16 -86q0 -27 -1 -70.5t-1 -68.5q-25 -14 -82.5 -24.5t-93.5 -10.5q-3 0 -6.5 4t-7.5 4q-5 0 -10 -4t-11 -4q-4 0 -10 3t-10 3q-1 0 -15 -14 q-9 -1 -23 -1.5t-22.5 -1t-19.5 -6.5t-19 -18q0 -99 -1 -146.5t-6 -99.5t-15 -71q-15 0 -36 -0.5t-41 -1.5t-37 -2t-29 -2h-11q-12 -2 -22 2t-13 4q-8 0 -14 -6h-153q-1 0 -81.5 -1t-95.5 -1q-17 0 -28 13.5t-16 37.5t-7 44t-3 45.5t-1 29.5q-2 36 -15.5 184.5t-13.5 228.5z M874 362q-4 0 -4 -4q0 -1 1 -1q1 -1 3 -1t2 1v1q0 4 -2 4z" />
<glyph unicode="g" horiz-adv-x="1487" d="M1387 244q0 -213 -16 -246q-23 0 -69 -2l-40 -2h-4q-12 0 -18 2l-1 1q-2 0 -1 1q-4 0 -5 -1q-5 -2 -5 -3h-177l-27 -1q-28 -1 -34 -1q-26 0 -33 147q-17 -89 -109 -137.5t-223 -48.5q-74 0 -147 20.5t-144.5 68.5t-125.5 118.5t-87.5 179.5t-33.5 242q0 151 55 273 t151.5 202t228 123t284.5 43q226 0 467 -115l-68 -301q-14 3 -84 22t-114 27t-85 8q-53 0 -92.5 -13t-73.5 -44.5t-51.5 -90.5t-17.5 -145q0 -270 151 -270q53 0 107 25q-17 187 -23 217v80q0 14 11 14h12q8 0 23.5 4t25.5 4q14 0 38 -4t38 -4q9 8 53 8q19 0 48 3t34 3l23 6 l55 -2q55 -2 55 -4h45l8 -4v-57q2 -15 2 -113v-180q0 -1 -3 -26t-3 -27z" />
<glyph unicode="h" horiz-adv-x="1693" d="M1509 0h-143q-44 0 -148 5t-162 3h-34q-30 0 -38.5 17.5t-10.5 72.5l-21 338q-10 -2 -57 0.5t-56 5.5h-84q-14 0 -14 -30v-11v-329q0 -53 -2.5 -58.5t-26.5 -13.5q-198 -6 -288 -6q-176 0 -252 20q-21 3 -21 49q-4 64 -14 199.5t-15.5 245t-5.5 213.5q2 32 7.5 224 t7.5 224q0 7 6 7q11 0 34.5 5t43.5 3q15 -4 123 -2t112 2q38 0 115 -2t117 -2q41 0 51 -14.5t10 -67.5q0 -8 1 -46.5t1 -47.5q0 -5 1 -17t1 -18q0 -25 -2 -64.5t-2 -56.5q0 -22 5.5 -31.5t12.5 -9.5t27 3t35 3q1 0 8 -0.5t17 -0.5h22h24q11 0 21 1t16 2.5t7 3.5v84 q0 19 3 136t3 137h6q6 -1 9.5 -1t8 2t5.5 7h98q31 0 89.5 -4t88.5 -4q23 0 130 4t128 4q40 0 55 -8.5t15 -40.5v-162q0 -29 -6 -131t-3 -150l-20 -649q0 -12 -13 -27.5t-26 -15.5z" />
<glyph unicode="i" horiz-adv-x="842" d="M719 283l-8 -78q-3 -30 -3.5 -68.5t-1.5 -59t-5 -41.5t-15.5 -29.5t-31.5 -8.5q-2 0 -4 2t-4 2t-8.5 -1.5t-9.5 -1.5l-11 -3q-27 -2 -48.5 2t-27.5 4q-8 0 -14 -6h-154q-2 0 -82 -11.5t-94 -11.5q-17 0 -28 14t-16 37.5t-7 44t-3 45.5t-1 29q-2 43 -15.5 237t-13.5 296 v497q0 29 94 29q31 0 94 -4t99 -4l8 6h90q6 -6 15 -6q2 0 18 3l16 3q5 0 29 -6h152l4 -352q-13 -35 -13 -160v-399z" />
<glyph unicode="j" horiz-adv-x="1050" d="M828 54q-89 -83 -232 -129q-64 -20 -123 -29q-197 -19 -354 35l-78 35q-1 18 -0.5 28t5.5 45.5t6 49.5q0 58 9 91q2 5 3 5q41 -15 59 -20.5t45 -9.5t58 -3q18 0 33 16.5t21 33.5t14 45t9 32q0 13 2.5 77t2.5 118l3 238q1 37 1 102l-2 364q1 3 5 9q6 10 9 10t7.5 -1 t8.5 -1q14 0 44 5t48 5q25 0 74 -4t78 -4q5 5 17.5 7t24 2t29.5 -0.5t23 -0.5q8 -8 15 -8q2 0 16.5 4t15.5 4q21 0 27 -8h86q0 -2 7 -3q2 -1 7 -1l15 4q44 0 63 -69.5t19 -174.5v-315l-3 -88q-4 -87 -4 -92q0 -64 -3 -109t-13 -104t-35 -107t-63 -84z" />
<glyph unicode="k" horiz-adv-x="1538" d="M738 1184q17 0 17 -80q2 -52 -3.5 -135.5t-5.5 -106.5q15 0 24.5 3t13.5 6t13 12.5t17 15.5l91 87l175 160q87 75 107 79q4 0 14 -10.5t20 -22.5t13 -14q20 -34 88 -103.5t90 -122.5v-4q0 -20 -22.5 -48t-55 -58t-39.5 -39q-7 -4 -85 -71t-83 -70q-8 -7 -19 -11.5 t-15.5 -9.5t-4.5 -18q0 -15 9 -29.5t17.5 -23t26.5 -23t23 -19.5q7 -7 92.5 -83t144 -137.5t58.5 -86.5q0 -21 -14 -33q-21 -19 -61 -47t-58 -43q-84 -65 -113 -80q-7 -3 -54.5 -25.5t-51.5 -23.5q-40 -19 -55 -4l-41 41q-4 7 -10 10.5t-11 10.5l-162 182q-12 17 -42.5 50.5 t-39.5 33.5q-14 0 -14 -14q0 -18 -3 -110t-3 -108q-3 -8 -2 -20.5t0 -26t-6 -14.5h-33q-42 -3 -91 -4t-84 -1t-92.5 0.5t-88.5 0.5q-14 0 -41 -0.5t-48 -1.5h-22l-78 18l-6 15q-1 0 -3 67l-5 156q-2 89 -2 135q-6 414 -6 637q0 7 -2 47t-2 47q0 41 2 43q7 17 21 24.5t26 7.5 t34.5 -2.5t32.5 -2.5q132 0 247 -0.5t181.5 -1t79.5 -0.5z" />
<glyph unicode="l" horiz-adv-x="1157" d="M114 430l9 88q2 53 4 135.5t3 133t4 116t8.5 106.5t13.5 82t21 64.5t30 32.5q113 0 236.5 -3t189.5 -3q6 0 16 -1q29 -2 41 -4t25 -10.5t17 -26.5t3 -50q0 -7 -5 -42.5t-7 -41.5q0 -7 3 -48.5t3 -44.5q1 -13 1.5 -64t2.5 -91.5t8 -52.5q0 -18 -3 -82.5t-1 -110.5t12 -82 q21 -8 47 -8q194 0 271 14q12 -3 23.5 -16.5t11.5 -26.5l-15 -350q-3 -25 -97 -37t-159 -12q-21 0 -61 -3t-58 -3q-39 0 -55 6q-23 0 -140.5 7t-123.5 7q-35 2 -99 -2t-92 -4q-61 0 -77 -2l-9 8q1 7 0.5 37.5t0 72t1.5 50.5q2 46 -1 150.5t-3 111.5z" />
<glyph unicode="m" horiz-adv-x="1822" d="M932 764q2 6 36 83l73 160q38 83 44 95q13 28 33 55t29 27q11 0 68 0.5t156 1t212 0.5q18 0 43.5 -1t60.5 -1q17 0 17 -533q0 -119 -15 -264q0 -47 2 -135t4 -154.5t3 -66.5l-7 -15l-80 -18h-21q-21 -1 -47 -1.5t-40 -0.5q-100 0 -268 14q-1 0 -8 -1t-11 -1 q-26 0 -26 414q0 14 -15 14q-8 0 -63 -151q-1 -1 -17 -35t-33.5 -65t-46 -59t-55.5 -28q-104 0 -137 4q-57 90 -98 175.5t-55.5 122t-18.5 36.5q-14 0 -14 -14q0 -292 -8 -360q-7 -54 -19 -54q-4 0 -10.5 1t-7.5 1q-168 -14 -269 -14q-13 0 -40 0.5t-49 1.5h-21l-78 18 l-6 15q-2 0 -4 64.5t-4 159t-3 132.5q1 42 3.5 114.5t4 133t1.5 117.5q0 6 -2 36t-2 33q0 31 4 91t4 110q0 7 -2 48t-2 48q-4 4 -4 12q0 18 13.5 30.5t36 17.5t38.5 6.5t32 1.5q113 0 212 -0.5t156.5 -1t68.5 -0.5q16 0 61 -82q10 -31 69.5 -181.5t65.5 -156.5 q14 -27 27 -27t29 27z" />
<glyph unicode="n" horiz-adv-x="1560" d="M1437 393q0 -302 -9 -351q-7 -40 -30 -44q-7 -2 -24 -2q-73 0 -110 1q-32 0 -105 0.5t-107 0.5q-4 0 -19.5 -1t-26.5 -0.5t-26.5 3t-30 10t-26.5 19.5l-180 252q-7 13 -40.5 48.5t-41.5 35.5q-6 0 -10 -4.5t-4 -10.5q0 -24 -2 -146t-2 -141q-1 -3 -5 -27.5t-10 -27.5h-26 q-184 -14 -268 -14q-13 0 -39.5 0.5t-47.5 1t-22 0.5l-80 20l-4 13q-2 0 -6 139.5t-4 216.5q-15 163 -15 264q0 5 2.5 50t2.5 51q0 4 -2.5 34.5t-2.5 34.5q0 5 2.5 53t2.5 54q0 1 1 19.5t2 41t1 33.5q0 5 -2 46t-2 48q0 1 -3.5 6.5t-1.5 7.5q21 56 121 56q93 0 195 6.5 t139.5 6t48.5 -14.5l287 -426q0 103 4 241t8 140q44 44 80 41h101q6 0 133 -3.5t129 -3.5q45 0 63.5 -14t18.5 -59q0 -8 -3.5 -46.5t-3.5 -47.5q0 -4 2.5 -15.5t2.5 -17.5q0 -23 -2.5 -288t-2.5 -290z" />
<glyph unicode="o" horiz-adv-x="1549" d="M635 -43q-81 0 -193 35h-14q-8 0 -12.5 1t-12.5 4.5t-15 7.5l-24 15l-34 21q-62 35 -110.5 98.5t-75.5 137.5t-40.5 146.5t-13.5 137.5q0 118 38.5 235.5t106 213t171 155.5t223.5 60q49 0 73 -4q3 2 15 2q177 0 266 -12t168 -56q163 -108 236 -242t73 -333 q0 -196 -92 -365q-6 -13 -19.5 -34t-15.5 -21l-14 -8q-28 -42 -65.5 -74.5t-73.5 -53.5t-86.5 -36t-88.5 -22.5t-96.5 -11.5t-92.5 -4.5t-93 -0.5q-15 0 -44 4t-44 4zM688 516v-41q0 -24 7.5 -143t12.5 -137l23 -78q4 -15 29 -15q30 0 51.5 78t30.5 190.5t12.5 191.5 t3.5 126q0 183 -28 262q-13 37 -31 37q-21 0 -40.5 -34.5t-27.5 -106.5z" />
<glyph unicode="p" horiz-adv-x="1518" d="M119 750v391q0 17 15 32t32 15q88 0 204.5 -2t149.5 -2q58 0 205.5 3t242.5 3q65 0 126.5 -9.5t130 -37.5t119 -71.5t83.5 -119t33 -172.5q0 -137 -35.5 -236t-103 -157.5t-156.5 -85.5t-205 -27h-243q0 -19 -1 -36.5t-2.5 -28.5t-2.5 -19t-2 -12.5t-1 -5.5q0 -4 4.5 -41 t4.5 -41q0 -59 -22 -74.5t-77 -15.5q-77 0 -202.5 -3t-239.5 -3q-16 0 -26 9.5t-14.5 28.5t-5.5 34t-1 38q0 38 -5 274.5t-5 371.5zM731 494q2 -2 10 -3q22 -2 72 -2q80 0 80 330q0 8 -0.5 19t-2.5 37t-7 48.5t-13.5 46t-23 37t-33.5 13.5q-50 0 -72 -263q-8 -108 -10 -263z " />
<glyph unicode="q" horiz-adv-x="1536" d="M1454 616q0 -192 -41.5 -324.5t-112.5 -205t-178 -111.5q119 -154 119 -198q-1 -22 -28.5 -43.5t-70 -44.5t-55.5 -33l-69 -21q-6 -6 -67.5 -23t-67.5 -15q-1 -5 -5 -6.5t-7 -1.5t-3 -1q-21 0 -61 43q-6 11 -13 11q-6 6 -10 12l-143 235l-5 10l-10 19q-6 10 -12 19 q-67 5 -123 15t-114 30t-103.5 50.5t-86 77t-67 106.5t-42 142.5t-15.5 182.5q0 369 170 530.5t559 161.5q60 0 119.5 -7.5t126.5 -27t125.5 -49.5t112.5 -78.5t93 -111t62 -150.5t23 -193zM678 567q0 -463 82 -463t82 498q0 41 -1.5 90.5t-8 147t-25.5 159.5t-47 62 q-20 0 -34.5 -19t-23 -60.5t-14 -80t-7.5 -106t-2.5 -107t-0.5 -113.5v-8z" />
<glyph unicode="r" horiz-adv-x="1537" d="M1336 119q-9 -24 -135.5 -88t-136.5 -54q-83 80 -141.5 162t-184.5 283q-3 3 -5 3q-3 0 -7.5 -1t-7.5 -2l-4 -1q-1 -18 -3 -134.5t-6.5 -194.5t-13.5 -78q-5 0 -12.5 1t-8.5 1q-226 -16 -329 -16q-13 0 -41 0.5t-50 1.5h-23l-64 21l-6 14q-1 0 -29 371q-14 202 -14 225 q0 5 3 52t3 52q0 4 -3 36t-3 36q0 32 4 93.5t4 115.5q0 8 -1 49t-1 49q-6 6 -6 12q0 16 14.5 26.5t37.5 15.5t40.5 6.5t34.5 1.5q243 0 416.5 -7.5t300 -26t204 -44.5t123 -69t61.5 -92.5t16 -121.5q0 -37 -8 -71t-17 -57t-28 -45.5t-30 -34t-33 -26.5t-27 -17.5t-23 -12.5 q16 -43 70 -118l103 -139q50 -65 56 -84q9 -4 11 -10t-3 -13.5t-13 -14.5t-20 -16q-22 -15 -64 -39zM735 953h-34l-9 -255q32 0 72.5 10t59.5 25q37 22 57.5 45t20.5 56q0 59 -33 89t-78 30h-56z" />
<glyph unicode="s" horiz-adv-x="1270" d="M85 276v11q0 26 20 30q135 -51 262 -51q10 0 34.5 -0.5t38 -0.5t35.5 1t35 4.5t26.5 9.5t19.5 16t6 23q0 32 -24.5 56t-54 35.5t-72 25.5t-60.5 23q-18 7 -55 35q9 0 -9 10q-59 34 -63 53v10q-35 0 -64 53.5t-42 112.5t-13 96q0 67 21.5 123.5t55 97.5t88.5 73.5 t106.5 53t126 35.5t130.5 22.5t135.5 11.5t126 4.5t116.5 0.5q16 -5 41 -10q50 -11 59.5 -43.5t17.5 -214.5q12 -23 -23.5 -33.5t-96 -15.5t-122 -13t-106.5 -34.5t-45 -71.5q0 -15 4 -22.5t19 -18.5q25 -13 79 -38l80 -39q26 -13 70 -38t66.5 -43t52.5 -47t44.5 -57 t25 -65.5t10.5 -79.5q0 -61 -15 -99q-50 -131 -195.5 -219t-295.5 -90l-301 -6q-6 3 -68 13.5t-119 25.5t-59 31z" />
<glyph unicode="t" horiz-adv-x="1338" d="M351 780l-6 6h-203q-69 0 -69 263q0 8 1 40l3 61q2 29 2 30l8 8q16 -2 78 -2q45 0 136 1t136 1q12 0 191.5 -1t216.5 -1q16 6 55 6q18 0 58 -3t61 -3q5 0 53.5 1t81.5 1q119 0 119 -14v-351q0 -12 -12.5 -26t-24.5 -17q-24 5 -48 8.5t-55 5t-46 2t-55.5 0t-47.5 -0.5 q-11 0 -19 -7t-13 -23t-8 -29.5t-4 -38.5l-2 -38q0 -13 0.5 -39.5t0.5 -31.5q0 -21 1 -60.5t1 -56.5q0 -48 -9 -155t-9 -146q0 -122 -13.5 -146t-73.5 -28q-14 -1 -22 -2q-66 0 -194 1t-242 1q-31 41 -31 299q0 63 2 226t2 259z" />
<glyph unicode="u" horiz-adv-x="1639" d="M972 6q-13 7 -21.5 28.5t-14.5 39.5t-12 18q-9 0 -19 -3.5t-22 -12l-20 -14.5l-21 -18q-14 -12 -18 -15q-50 -29 -119.5 -43.5t-105.5 -14.5q-16 0 -66.5 -1t-75 -0.5t-63.5 6.5t-70 18q-40 15 -71.5 45t-51.5 63.5t-34 83.5t-21 88t-10 95t-3.5 87.5t0.5 82t1 63.5 q0 14 1 68.5t1 58.5l6 14q1 0 4.5 67.5t6.5 150t3 116.5q0 13 -3 38t-3 38q0 31 62 31h30q25 0 33 4l250 -4q0 -6 8 -6l13 6q108 0 144 -25.5t36 -116.5q0 -32 3 -90t3 -90v-20q-14 -299 -14 -480v-15v-22q0 -8 0.5 -23t2.5 -24.5t5 -19.5t8 -15t12 -5q20 0 91 31t71 40v674 q-8 55 -8 129q0 3 -0.5 13.5t0 15t1.5 12.5t4 11.5t9 6.5t15 3q4 0 9 -4t5 -9v-2q47 21 295 21h35l217 -6q9 -4 11.5 -6t2.5 -7q0 -2 -1 -7t-1 -7q2 0 8 2t8 2q6 0 6 -8q0 -694 -20 -1073q0 -15 -43 -58q-11 8 -35 8q-2 0 -7 -4t-7 -4q-77 -14 -258 -14q-141 0 -182 8z" />
<glyph unicode="v" horiz-adv-x="1581" d="M618 2q-27 0 -74 -4t-71 -4q-12 0 -30 4t-23 4h-19q-6 2 -11 9t-5 12l-164 552q-44 169 -102 435l-3 12q-3 13 -4 19.5t-4 21.5t-3.5 25t-1 23.5t1.5 22.5t5 18t9.5 13t15.5 4q191 0 199 -4h125l8 -5l8 -3q2 0 8.5 4t16.5 4h6l60 -4q47 -4 106 -4q7 -11 14 -33.5 t15 -60.5t13 -69l16 -87l17 -88q0 -3 36 -203t36 -202v-8q0 -5 2 -19q2 5 3 12.5t1 8.5l2 6q0 2 34 202t34 203l28 139q18 91 29.5 135.5t22.5 63.5q20 0 52.5 2t56.5 4l24 2h2q2 0 4.5 -4t3.5 -4q16 0 16 8h113q1 0 45.5 1t93.5 2t60 1q9 0 15.5 -4.5t10 -12.5t5.5 -17.5 t1 -23t-1.5 -23.5t-3 -24.5t-4.5 -22t-4.5 -19t-2.5 -12.5q-58 -266 -102 -435l-164 -552q0 -15 -17 -21h-16q-7 0 -21 -4t-22 -4q-15 0 -45.5 4t-48.5 4q-3 -3 -24 -5t-49.5 -3t-64.5 -1h-63q-27 0 -51.5 0.5t-26.5 0.5q1 1 -31 3t-63.5 3.5t-34.5 1.5z" />
<glyph unicode="w" horiz-adv-x="2046" d="M1255 10q-9 0 -28 -4t-29 -4t-22.5 5t-20.5 5l-17 -2q-16 3 -16 21l-115 567l-114 -567q-17 -7 -17 -21l-16 2q-4 0 -11 -5t-12 -5q-20 0 -55 4t-57 4q-4 -10 -47 -10q-53 0 -99.5 5t-76.5 5q-15 0 -45.5 -4t-47.5 -4q-9 0 -28 5t-29 5l-16 -2q-19 3 -19 21l-119 542 q-67 330 -84 426q-16 18 -16 107q0 53 31 53q15 0 106 -2t92 -2h74q12 -2 15 -5q2 -2 2 -3q3 0 10 4t14 4h6l23 -2q23 -2 54.5 -4t51.5 -2q7 -13 14 -38t15 -64t14 -74l17 -94l18 -97q0 -4 15.5 -93.5t15.5 -90.5q0 -4 1 -7q3 -14 5 -20l4 20l2 7q0 1 15.5 90.5t15.5 93.5 l29 152q18 96 29 145t22 70q51 0 69 2q0 10 21 10q147 0 176 -2q1 0 4 1t4 1q14 0 14 -4h107q13 -2 16 -5q2 -2 2 -3q2 0 9.5 4t13.5 4h6q1 0 18.5 -4t24.5 -4q7 -11 14 -33.5t15 -58t14 -68.5l17 -85l18 -89q0 -3 16 -118l17 -115q-1 -4 0 -8q0 -10 4 -19q0 1 4 19l2 8 l17 115q16 115 16 118l17 89l17 84l15 68.5t15 58t14 34.5q27 0 48 4l29 4h6q1 0 2 -4t3 -4q9 0 13 1.5t4.5 3t0.5 3.5h92l44 1q44 2 93 2.5t62 0.5q29 0 29 -53q-17 -41 -17 -107q-46 -213 -117 -477l-120 -491q-19 -7 -19 -21l-14 2q-7 0 -20 -5t-21 -5q-17 0 -47.5 4 t-46.5 4q-10 -10 -101 -10q-53 0 -96.5 5t-77.5 5z" />
<glyph unicode="x" horiz-adv-x="1645" d="M768 221l-56 -123l-36 -57l-41 -39l-19 4l-8 -3q-7 -3 -16.5 -6.5t-19 -6t-13.5 -0.5q-23 6 -180.5 7t-218.5 9h-7q-6 0 -9.5 2t-4.5 6.5t-1 7.5t0.5 9t0.5 8q0 25 51 121t84 145q16 25 90 174l70 142l-18 31q-28 48 -35 63q-7 4 -102 159.5t-99 159.5q-78 108 -78 160 l47 6q3 0 232.5 -9t234.5 -9q17 0 93.5 -124t88.5 -153q0 -5 4 -14t8 -15t5 -6l11 10q7 7 20 25q12 29 88.5 153t93.5 124q5 0 234.5 9t232.5 9l47 -6q0 -29 -26 -70.5t-52 -70.5q-5 -5 -99.5 -169.5t-101.5 -168.5q-13 -20 -47 -63l-24 -31l56 -102q66 -121 71 -128 q186 -313 186 -368q0 -2 0.5 -8t0.5 -9.5t-1 -7.5t-4.5 -6t-9.5 -2h-6q-36 0 -132 2.5t-162.5 2.5t-86.5 -5q-5 -1 -12 0t-15.5 3.5t-15.5 5.5l-12 5l-5 2q-2 0 -9 -2t-9 -2l-41 39v12q0 3 -1 3t-3.5 -0.5t-6.5 0.5t-8 5l-90 160q-12 27 -32 61.5t-29 34.5z" />
<glyph unicode="y" horiz-adv-x="1499" d="M1056 173l-201 -382q-13 -25 -24 -35t-26 -10q-17 0 -62 17q-3 1 -22.5 8t-28.5 9q-11 2 -28.5 10.5t-26.5 10.5q-2 1 -25 3.5t-25 4.5q-39 11 -82.5 27.5t-101 41.5t-82.5 35q-12 4 -12 21q0 16 6 24l36 62l39 67q18 30 39 58q11 14 27 51l14 33q-31 56 -81.5 135.5 t-72.5 101.5l-168 295q-20 30 -56 105t-36 95q0 15 48.5 42t91.5 44l95 41l95 42q42 18 97 39q16 6 41 6q24 0 43 -41q125 -262 160 -330q23 -44 39 -44q9 0 16 16l141 366q6 25 35 41.5t55 8.5q92 -26 202.5 -70.5t179.5 -86.5q12 -7 19 -15t8.5 -18t2 -17.5t-3.5 -18.5 l-6 -15q-2 -5 -8 -16t-7 -12l-326 -711z" />
<glyph unicode="z" horiz-adv-x="1274" d="M141 49v326l190 195q191 201 191 235q0 8 -8 8l-336 4q-68 0 -68 217q0 8 1.5 38.5t3 58t1.5 28.5l9 10q12 13 35 13q8 0 22.5 -2t20.5 -2q43 0 129 5t129 5q85 0 252 3t255 3q189 0 189 -39v-285q0 -126 -375 -510h322q17 0 31 -11t14 -23v-287q0 -5 -1 -8.5t-7.5 -10 t-18.5 -10.5t-37 -7t-61 -3h-312q-99 0 -263.5 2t-262.5 2q-15 0 -30 15t-15 30z" />
<glyph unicode="{" horiz-adv-x="1023" d="M712 1203q0 -112 -31 -211t-94 -162q-21 -21 -45.5 -34t-67.5 -27.5t-59 -20.5q17 -8 47 -19.5t46.5 -18.5t38.5 -21t40 -32q62 -64 93.5 -160.5t31.5 -202.5q0 -34 23.5 -60.5t63.5 -34.5q21 -4 60.5 -7t58.5 -6l-31 -304q-112 -74 -228 -74q-183 0 -288 140.5 t-105 370.5q0 90 -59 154t-141 64q-25 0 -20 158q3 46 4 54l6 221q95 26 152.5 80t57.5 138q0 225 105 363t288 138q116 0 228 -74l31 -304q-19 -3 -58.5 -6t-60.5 -7q-40 -8 -63.5 -34.5t-23.5 -60.5z" />
<glyph unicode="|" horiz-adv-x="810" d="M685 408q-3 -60 -4 -215.5t-5.5 -261t-15.5 -127.5q-17 0 -40 -1l-46 -2q-22 -1 -41 -2t-31 -2l-12 -1h-6q-9 0 -18.5 4t-14.5 4l-8 -3l-8 -5h-190q-4 -4 -66 -4t-61 181v7q0 550 8 714v819q0 10 5 15t10.5 5.5t15.5 0.5h4q42 0 119.5 1t119.5 1q4 0 24 3.5t55 3.5t89 -7 q9 -9 33 0q32 0 47.5 -3.5t28 -19t16.5 -45.5t4 -85v-572q0 -1 -6 -200t-6 -203z" />
<glyph unicode="}" horiz-adv-x="1023" d="M311 1203q0 34 -23.5 60.5t-63.5 34.5q-21 4 -60.5 7t-58.5 6l31 304q112 74 228 74q183 0 288 -138t105 -363q0 -84 57.5 -138t152.5 -80l6 -221q1 -8 4 -54q5 -158 -20 -158q-82 0 -141 -64t-59 -154q0 -230 -105 -370.5t-288 -140.5q-116 0 -228 74l-31 304 q19 3 58.5 6t60.5 7q40 8 63.5 34.5t23.5 60.5q0 106 29 202t86 161q18 18 40.5 32t37 21t46.5 20l48 18l-48 17q-31 10 -47.5 16.5t-38 19t-38.5 29.5q-115 126 -115 373z" />
<glyph unicode="~" horiz-adv-x="1344" d="M884 1044h11l283 1q25 0 45 -78.5t20 -168.5q0 -6 -0.5 -15t-0.5 -15q-2 -45 -31.5 -97t-77 -96t-117 -73.5t-142.5 -29.5q-69 0 -127 24t-96.5 58t-72 67.5t-69.5 57.5t-73 24q-31 0 -42 -43.5t-14.5 -87t-17.5 -43.5q-3 0 -4 1q-59 18 -110.5 28.5t-76.5 14t-45 4.5 t-26 7.5t-8 16t-2 36.5v4q0 44 1 69.5t8 75.5t20.5 82.5t42 73t67.5 64.5t101.5 41t141.5 17q65 0 131 -33t101 -76q6 -8 22 -31.5t26.5 -37.5t29.5 -26.5t40 -12.5q53 0 53 42q0 28 -11 80.5t-11 58.5q0 16 31 16z" />
<glyph unicode="&#xa2;" horiz-adv-x="1212" d="M885 408q-4 -17 -6.5 -56.5t-5.5 -60.5q89 19 223 98l20 -291q-108 -90 -273 -129q-19 -140 -33 -165q-35 -22 -65.5 -27.5t-45 0t-14.5 15.5l11 159q-58 1 -105 4t-104 11t-101.5 21.5t-92.5 36.5t-84.5 54t-70 76t-55 101t-34 131t-12.5 163q0 159 46 289t126.5 215 t188.5 130.5t233 45.5q84 0 168 -12l22 296q0 10 7 15t13 5.5t19 0.5h5v2q19 0 31 -0.5t25 -3t20.5 -7t14.5 -12t10.5 -18.5t5.5 -27.5t1.5 -37t-2.5 -47.5l-15 -210q93 -30 191 -77l-28 -232q-146 30 -183 34q-7 -73 -7 -87q0 -1 -22 -200t-22 -203zM635 573 q0 -168 92 -239q11 210 23 360l23 182q-138 -67 -138 -303z" />
<glyph unicode="&#xa3;" horiz-adv-x="1508" d="M206 -44q-29 15 -93 28l-40 41q0 1 -1.5 4.5t-1.5 5.5q0 24 12.5 134t16.5 110q45 -21 105 -21q29 0 51 29.5t30.5 61t8.5 54.5q0 13 -6 127q-142 0 -142 45q0 46 -1 116t-1 114q0 14 24 26.5t46 12.5h78q17 185 86 340q63 133 174 202.5t258 69.5q258 0 518 -153 l-37 -267l-57 14l-68 16q-19 5 -55 10t-64 5q-48 0 -69 -84v-155h123q161 0 161 -41q0 -47 -4 -101.5t-4 -85.5q0 -19 -1.5 -29t-8.5 -22.5t-21 -18.5t-40.5 -10t-65.5 -4h-203q0 -63 -1 -114l-3 -115q36 14 90 11q53 -3 144 14q23 0 47 2.5t53 8.5l46 9q17 4 52 13t45 12 l37 -267q-133 -78 -328 -115q-199 -38 -370 -38q-18 0 -56 2q-26 1 -53 14q-28 11 -411 -11z" />
<glyph unicode="&#xa5;" horiz-adv-x="1685" d="M426 471h-88q-11 0 -34 -0.5t-35 0t-30.5 1t-28.5 2t-20.5 5t-15 9t-4.5 12.5q0 33 -1 82.5t-1 81.5q0 8 17 16t34 8h84q-77 142 -121 254q-28 60 -66 157t-38 126q0 18 41 41t84 34q35 9 79 23t54 16q4 1 85.5 15.5t125.5 27.5q4 0 6 1q2 0 5 1h3q37 0 56 -18t40 -61 q3 -21 17.5 -62t15.5 -45q12 -38 89 -255l58 -165l96 232q100 242 117 301l5 13l4 13q1 3 4 10t5.5 9.5t6.5 7t8.5 6t10.5 3t14 1.5q104 0 277 -53.5t227 -110.5q0 -42 -25 -102l-240 -420h41q119 0 119 -26q0 -36 -3 -77t-3 -61q0 -19 -4.5 -28.5t-27 -17t-68.5 -7.5h-179 l-53 -94q-7 -18 -35 -58h254q119 0 119 -26q0 -36 -3 -76.5t-3 -60.5q0 -19 -4.5 -29t-27 -17.5t-68.5 -7.5h-287v-196q-21 -8 -21 -15q-1 2 -1.5 5.5t-2.5 5.5q-7 -2 -11 -5l-3 -3q-14 -2 -17 0t-3 14q-57 -10 -168 -10q-4 0 -29 -4.5t-27 -4.5q-71 -5 -183.5 4.5 t-115.5 34.5q-2 10 -2 174h-192q-11 0 -34 -0.5t-35 0t-30.5 1t-28.5 2t-20.5 5t-15 9t-4.5 12.5q0 33 -1 82.5t-1 81.5q0 8 17 16t34 8h293q-49 86 -70 152h-4q-2 0 -3.5 -1t-2.5 -1q-4 0 -6 2z" />
<glyph unicode="&#xa9;" horiz-adv-x="2130" d="M1108 654q0 -260 136 -260q79 0 217 94l18 -263q-60 -60 -156 -96.5t-180 -36.5q-66 0 -117 3.5t-113.5 16.5t-109 35.5t-93 63t-76 96.5t-48 138.5t-18.5 186.5q0 144 41.5 261t114 193.5t170 118t210.5 41.5q198 0 403 -120l-25 -210q-4 1 -36 9.5t-42.5 10.5t-35 7.5 t-43 7t-36.5 1.5q-85 0 -133 -65t-48 -233zM1755 675q0 135 -36.5 246.5t-99.5 189t-149 130.5t-183 78t-203 25q-101 0 -201 -29t-190 -88t-159 -139.5t-109.5 -192t-40.5 -238.5q0 -133 36 -245.5t98.5 -191.5t146 -135t178 -82.5t195.5 -26.5q107 0 209.5 27.5 t194.5 85.5t161.5 139t110.5 196.5t41 250.5zM2045 696q0 -159 -41 -299t-113 -246t-169.5 -190t-212 -137.5t-238.5 -81.5t-251 -28q-119 0 -233.5 26t-219.5 77t-192.5 130.5t-152.5 181t-101.5 235t-36.5 286.5q0 178 59 335t160 270.5t232 195.5t277.5 123t295.5 41 q148 0 283 -34t255 -107.5t208.5 -179.5t139.5 -259.5t51 -338.5z" />
<glyph unicode="&#xad;" d="M605 399h-311q-9 0 -27.5 -0.5t-28.5 0t-26.5 0.5t-25.5 2l-22 5q-12 2 -19 6.5t-14 10.5t-10 15.5t-3 20.5q0 62 -1.5 151.5t-1.5 149.5q0 18 18 35.5t36 17.5q32 0 91 4t93 4h190q35 0 93 -4t90 -4q125 0 125 -55q0 -64 -3 -132.5t-3 -107.5q0 -62 -18 -87t-87 -25 l-14 -4q-12 -3 -19 -3h-102z" />
<glyph unicode="&#xae;" horiz-adv-x="2130" d="M1755 675q0 135 -36.5 246.5t-99.5 189t-149 130.5t-183 78t-203 25q-101 0 -201 -29t-190 -88t-159 -139.5t-109.5 -192t-40.5 -238.5q0 -133 36 -245.5t98.5 -191.5t146 -135t178 -82.5t195.5 -26.5q107 0 209.5 27.5t194.5 85.5t161.5 139t110.5 196.5t41 250.5z M2045 696q0 -159 -41 -299t-113 -246t-169.5 -190t-212 -137.5t-238.5 -81.5t-251 -28q-119 0 -233.5 26t-219.5 77t-192.5 130.5t-152.5 181t-101.5 235t-36.5 286.5q0 178 59 335t160 270.5t232 195.5t277.5 123t295.5 41q148 0 283 -34t255 -107.5t208.5 -179.5 t139.5 -259.5t51 -338.5zM1541 272q-8 -20 -103 -70.5t-104 -41.5q-63 63 -107 127.5t-141 225.5q-2 2 -4 2t-8 -1l-6 -2q-1 -19 -2.5 -108t-5 -152t-10.5 -63q-4 0 -9.5 1t-6.5 1q-158 -13 -250 -13q-10 0 -31 0.5t-38 1t-18 0.5l-48 16l-5 11q-2 6 -22 295 q-11 154 -11 179q0 4 2.5 41t2.5 41t-2.5 29t-2.5 28q0 27 3 75t3 91q0 7 -0.5 39t-0.5 39q-5 5 -5 10q0 32 20.5 51.5t39 23.5t37.5 4q185 0 316.5 -6.5t228.5 -23t155.5 -40t93.5 -62.5t47 -83.5t12 -110.5q0 -41 -11.5 -76.5t-22.5 -54.5t-35.5 -40t-29.5 -24l-27 -15 q15 -44 92.5 -150t81.5 -121q13 -8 6.5 -18.5t-25.5 -24.5q-18 -14 -49 -31zM1084 935h-26q0 -30 -3.5 -98t-3.5 -105q25 0 55 8t46 20q19 13 29 21.5t20 24.5t10 34q0 47 -25 71t-59 24h-43z" />
<glyph unicode="&#xb4;" horiz-adv-x="865" d="M551 1577q-11 -22 -46 -101t-61 -124t-43 -45q-62 0 -76 -2l-14 8l-8 -6h-59q-18 0 -55 -1t-56 -1q-39 0 -39 61q0 81 21.5 236t25.5 196q31 160 74 316l16 14l88 14q52 0 132 3t112 3l12 -6q7 2 22.5 2.5t20.5 1.5q4 -2 13 -3.5t12 -2.5l88 -6l14 -4q3 0 7 1t8 1 q42 -9 55.5 -16.5t13.5 -22.5q3 -6 -51.5 -102t-95.5 -160q-28 -44 -66.5 -128t-64.5 -126z" />
<glyph unicode="&#x2000;" horiz-adv-x="1074" />
<glyph unicode="&#x2001;" horiz-adv-x="2148" />
<glyph unicode="&#x2002;" horiz-adv-x="1074" />
<glyph unicode="&#x2003;" horiz-adv-x="2148" />
<glyph unicode="&#x2004;" horiz-adv-x="716" />
<glyph unicode="&#x2005;" horiz-adv-x="537" />
<glyph unicode="&#x2006;" horiz-adv-x="358" />
<glyph unicode="&#x2007;" horiz-adv-x="358" />
<glyph unicode="&#x2008;" horiz-adv-x="268" />
<glyph unicode="&#x2009;" horiz-adv-x="429" />
<glyph unicode="&#x200a;" horiz-adv-x="119" />
<glyph unicode="&#x2010;" d="M605 399h-311q-9 0 -27.5 -0.5t-28.5 0t-26.5 0.5t-25.5 2l-22 5q-12 2 -19 6.5t-14 10.5t-10 15.5t-3 20.5q0 62 -1.5 151.5t-1.5 149.5q0 18 18 35.5t36 17.5q32 0 91 4t93 4h190q35 0 93 -4t90 -4q125 0 125 -55q0 -64 -3 -132.5t-3 -107.5q0 -62 -18 -87t-87 -25 l-14 -4q-12 -3 -19 -3h-102z" />
<glyph unicode="&#x2011;" d="M605 399h-311q-9 0 -27.5 -0.5t-28.5 0t-26.5 0.5t-25.5 2l-22 5q-12 2 -19 6.5t-14 10.5t-10 15.5t-3 20.5q0 62 -1.5 151.5t-1.5 149.5q0 18 18 35.5t36 17.5q32 0 91 4t93 4h190q35 0 93 -4t90 -4q125 0 125 -55q0 -64 -3 -132.5t-3 -107.5q0 -62 -18 -87t-87 -25 l-14 -4q-12 -3 -19 -3h-102z" />
<glyph unicode="&#x2012;" d="M605 399h-311q-9 0 -27.5 -0.5t-28.5 0t-26.5 0.5t-25.5 2l-22 5q-12 2 -19 6.5t-14 10.5t-10 15.5t-3 20.5q0 62 -1.5 151.5t-1.5 149.5q0 18 18 35.5t36 17.5q32 0 91 4t93 4h190q35 0 93 -4t90 -4q125 0 125 -55q0 -64 -3 -132.5t-3 -107.5q0 -62 -18 -87t-87 -25 l-14 -4q-12 -3 -19 -3h-102z" />
<glyph unicode="&#x2013;" d="M605 399h-311q-9 0 -27.5 -0.5t-28.5 0t-26.5 0.5t-25.5 2l-22 5q-12 2 -19 6.5t-14 10.5t-10 15.5t-3 20.5q0 62 -1.5 151.5t-1.5 149.5q0 18 18 35.5t36 17.5q32 0 91 4t93 4h190q35 0 93 -4t90 -4q125 0 125 -55q0 -64 -3 -132.5t-3 -107.5q0 -62 -18 -87t-87 -25 l-14 -4q-12 -3 -19 -3h-102z" />
<glyph unicode="&#x2014;" horiz-adv-x="1126" d="M295 812h471h102q8 0 19 -4l14 -3q69 0 87 -25t18 -87q0 -39 3 -107.5t3 -132.5q0 -55 -125 -55q-40 0 -118 1t-125 1h-190q-55 0 -147 1t-137 1q-18 0 -36 17.5t-18 35.5q0 58 1.5 147.5t1.5 149.5q0 11 3 20.5t10 15.5t14 10.5t19 7.5l21 4q10 2 26.5 2t26.5 0.5 t28.5 0t27.5 -0.5z" />
<glyph unicode="&#x2018;" horiz-adv-x="846" d="M346 1389q127 34 233 34q31 0 39 -2q0 -13 11.5 -49.5t11.5 -50.5v-2l24 -92q0 -4 2.5 -26t2.5 -23q-79 0 -128.5 -49.5t-62 -99t-0.5 -52.5q15 -4 82.5 -5.5t119.5 -9t54 -26.5q21 -89 21 -408l-13 -14l-106 -14h-33h-47q-23 0 -60 -3t-53 -3h-39h-10l-14 6 q-6 -2 -21 -2.5t-20 -1.5q-4 2 -14 3.5t-13 2.5l-90 6l-14 4q-3 0 -7 -1t-8 -1q-40 12 -49.5 21.5t-9.5 37.5q0 18 -7.5 100t-13.5 113q-5 37 -7 79t0 104t16.5 121t39.5 118t72 107.5t111 77.5z" />
<glyph unicode="&#x2019;" horiz-adv-x="837" d="M477 508q-114 -55 -213 -55q-31 0 -39 2q-4 38 -22 100v2l6 14l-8 9l-23 69q-3 3 -12 24t-13 25q46 9 86.5 32.5t63.5 50.5t41.5 54.5t20.5 44t-1 19.5q-12 2 -81.5 4t-121 10t-53.5 27q-3 35 -8 197t-12 211l12 14l107 14h32h88q14 0 37.5 3t34.5 3h39h10l15 -6 q6 2 21 2.5t20 1.5q4 -2 13.5 -3.5t12.5 -2.5l90 -6l15 -4q3 0 7 1t7 1q40 -12 49.5 -21.5t9.5 -37.5q0 -173 21 -213q-5 -23 -7 -76l-4 -102q-2 -51 -15 -114.5t-36 -116t-72 -101t-118 -76.5z" />
<glyph unicode="&#x201c;" horiz-adv-x="1546" d="M366 1389q106 34 193 34q30 0 39 -2q0 -13 11 -49.5t11 -50.5v-2l25 -92q0 -4 2 -26t2 -23q-39 0 -70.5 -20.5t-46 -49t-25.5 -59t-10 -50t2 -22.5q12 -3 69 -4.5t101 -9.5t46 -27q20 -85 20 -408l-12 -14l-107 -14h-33h-47q-14 0 -37 -3t-34 -3h-39h-10l-15 6 q-6 -2 -21 -2.5t-20 -1.5q-4 2 -13.5 3.5t-12.5 2.5l-91 6l-14 4q-3 0 -7 -1t-7 -1q-40 12 -50 21.5t-10 37.5q0 29 -20 213q-6 47 -8.5 98.5t6 131.5t31 147t74.5 131.5t128 98.5zM1073 1389q102 34 192 34q31 0 39 -2q0 -13 11.5 -49.5t11.5 -50.5v-2l24 -92q0 -4 2.5 -26 t2.5 -23q-39 0 -70 -20.5t-46.5 -49t-26.5 -59t-10 -50t3 -22.5q13 -3 69.5 -5t100 -9.5t45.5 -26.5q21 -89 21 -408l-13 -14l-106 -14h-33h-47q-14 0 -37.5 -3t-34.5 -3h-39h-10l-14 6q-6 -2 -21 -2.5t-20 -1.5q-4 2 -14 3.5t-13 2.5l-90 6l-14 4q-4 0 -8 -1t-7 -1 q-40 12 -49.5 21.5t-9.5 37.5q0 18 -7.5 100t-13.5 113q-5 37 -7 79t0 104t16.5 121t39.5 118t72 107.5t111 77.5z" />
<glyph unicode="&#x201d;" horiz-adv-x="1631" d="M493 508q-114 -55 -213 -55q-30 0 -39 2q-4 38 -22 100v2l6 14l-8 9l-23 69q-3 3 -12.5 24.5t-11.5 24.5q46 9 86.5 32.5t63.5 50.5t41.5 54.5t20.5 44t-1 19.5q-12 2 -81.5 4t-121 10t-53.5 27q-5 39 -8.5 200t-12.5 208l12 14l107 14h33h88q14 0 37.5 3t34.5 3h38h11 l14 -6q6 2 21 2.5t20 1.5q4 -2 13.5 -3.5t13.5 -2.5l90 -6l14 -4q3 0 7 1t7 1q40 -12 50 -21.5t10 -37.5q0 -175 20 -213q-5 -23 -7 -75.5t-3.5 -103t-14.5 -114t-36.5 -116t-72 -101t-118.5 -76.5zM1245 508q-114 -55 -213 -55q-31 0 -39 2q-4 38 -22 100v2l6 14l-9 9 l-22 69q-3 3 -12 24t-13 25q46 9 86.5 32.5t63.5 50.5t41.5 54.5t20.5 44t-1 19.5q-12 2 -81.5 4t-121 10t-53.5 27q-3 35 -8 197t-12 211l12 14l107 14h32h88q14 0 37.5 3t34.5 3h39h10l15 -6q6 2 21 2.5t20 1.5q4 -2 13.5 -3.5t12.5 -2.5l90 -6l15 -4q3 0 7 1t7 1 q40 -12 49.5 -21.5t9.5 -37.5q0 -173 21 -213q-5 -23 -7 -75l-4 -103q-2 -51 -15 -114.5t-36 -116t-72 -101t-118 -76.5z" />
<glyph unicode="&#x2022;" horiz-adv-x="1026" d="M407 197l-9 6q-2 1 -4 2.5t-3 1.5q-7 -4 -14 -4q-10 0 -20 5.5t-13 6.5l-6 -2l-4 -2q-8 0 -12 1.5t-7.5 3.5t-7.5 3h-8q-4 0 -7 0.5t-5.5 1.5t-7.5 3.5t-8.5 5t-13.5 8.5l-18 12q-74 43 -111.5 137t-37.5 184q0 8 1 30l1 22q4 40 15.5 92.5t25.5 52.5v-2q6 16 22.5 41 t22.5 41q5 -3 17.5 13t26 36t17.5 23q22 22 69 37.5t73 15.5q6 1 10 5.5t10 4.5q7 0 10 -4q14 0 31 2t27 2v-4q4 0 11 1t11 1q1 0 3 -1t3 -1t5 1t6 1q12 0 35 -4t34 -4q2 0 6.5 3t6.5 3l4 -6h20q70 0 131 -33q3 -3 9 -8.5t9.5 -9t9 -6.5t11.5 -3q152 -102 152 -329 q0 -123 -56 -226l-22 -34l-8 -5q-45 -65 -123.5 -95.5t-167.5 -30.5q-9 0 -23.5 3t-17.5 3l-14 -3q-14 -3 -23 -3t-27 3t-28 3q-5 0 -11.5 -1t-7.5 -1z" />
<glyph unicode="&#x2026;" horiz-adv-x="2331" d="M677 -20q2 -13 -4 -20t-21.5 -8.5t-30 -1.5t-38.5 1.5t-37 1.5q-4 0 -27.5 -1t-39 -1.5t-25.5 0.5q-147 5 -203 2q-3 0 -17 -1.5t-21 -2t-20.5 -0.5t-21 1.5t-16.5 4.5t-13 9.5t-5 15.5q-5 37 -8.5 198.5t-12.5 208.5l13 14l65 15h121q14 0 37.5 3t34.5 3h49l14 -6 q4 2 20 2.5t21 1.5q4 -2 13.5 -3.5t13.5 -2.5l49 -6l14 -5q2 0 7 1.5t7 1.5q39 -12 49.5 -22t10.5 -38q20 -23 20 -213q10 -59 5 -91.5t-3 -61.5zM1441 -20q2 -13 -4 -20t-21.5 -8.5t-30 -1.5t-38.5 1.5t-37 1.5q-4 0 -27.5 -1t-39 -1.5t-25.5 0.5q-147 5 -203 2 q-3 0 -17 -1.5t-21 -2t-20.5 -0.5t-21 1.5t-16.5 4.5t-13 9.5t-5 15.5q-5 37 -8.5 198.5t-12.5 208.5l13 14l65 15h121q14 0 37.5 3t34.5 3h49l14 -6q4 2 20 2.5t21 1.5q4 -2 13.5 -3.5t13.5 -2.5l49 -6l14 -5q2 0 7 1.5t7 1.5q39 -12 49.5 -22t10.5 -38q20 -23 20 -213 q10 -59 5 -91.5t-3 -61.5zM2205 -20q2 -13 -4 -20t-21.5 -8.5t-30 -1.5t-38.5 1.5t-37 1.5q-4 0 -27.5 -1t-39 -1.5t-25.5 0.5q-147 5 -203 2q-3 0 -17 -1.5t-21 -2t-20.5 -0.5t-21 1.5t-16.5 4.5t-13 9.5t-5 15.5q-5 37 -8.5 198.5t-12.5 208.5l13 14l65 15h121 q14 0 37.5 3t34.5 3h49l14 -6q4 2 20 2.5t21 1.5q4 -2 13.5 -3.5t13.5 -2.5l49 -6l14 -5q2 0 7 1.5t7 1.5q39 -12 49.5 -22t10.5 -38q20 -23 20 -213q10 -59 5 -91.5t-3 -61.5z" />
<glyph unicode="&#x202f;" horiz-adv-x="429" />
<glyph unicode="&#x205f;" horiz-adv-x="537" />
<glyph unicode="&#x20ac;" horiz-adv-x="1499" d="M206 471h-77h-13h-13q-3 0 -11 1t-11.5 3t-8 5.5t-6 10t-1.5 14.5q0 21 -2 51.5t-2 50.5q0 11 7 21t14 10h114v3q0 44 3 86h-70h-13h-13q-3 0 -11 1t-11.5 3t-8 5.5t-6 10t-1.5 14.5q0 21 -2 51.5t-2 50.5q0 11 7 21t14 10q99 0 146 1q24 83 62 154q83 169 224 264.5 t321 107.5q16 2 24 2h27q86 0 174 -18q174 -35 344 -135l-37 -266q-10 2 -57 14t-67 16.5t-55.5 9.5t-63.5 5q-117 0 -173 -84q-19 -28 -33 -70q46 0 69 -1h99q77 0 77 -32q0 -18 -4 -37.5t-4 -29.5q0 -36 -8 -50t-40 -14l-68 -2q-72 -2 -91 -2h-57q-1 -18 -1 -57v-30h6 q120 -2 190 -2q77 0 77 -32q0 -18 -4 -37.5t-4 -29.5q0 -36 -8 -50t-40 -14l-68 -2q-72 -2 -91 -2h-35l2 -7q44 -128 151 -128q112 0 281 123l18 -336q-78 -76 -200.5 -124t-227.5 -48q-283 0 -436 72q-45 20 -78 45q-63 54 -108 129q-39 43 -66 102q-25 67 -39 152z" />
<glyph unicode="&#x2122;" horiz-adv-x="2361" d="M301 1085q0 1 -5 4h-146q-49 0 -49 187q0 6 0.5 23.5t0.5 31.5l1 14q0 29 66 29q32 0 99 -1.5t99 -1.5h473q56 0 82 -4.5t30.5 -11t4.5 -22.5v-218q0 -20 -35 -20q-24 0 -84.5 0.5t-85.5 0.5q-12 0 -14 -4t-2 -28q0 -209 -14 -392v-126q0 -41 -13.5 -51.5t-51.5 -13.5 q-7 -1 -11 -1q-48 0 -137.5 -2t-166.5 -2q-21 0 -32 31.5t-13.5 98.5t-1.5 131t3.5 171t2.5 177zM1665 1064l115 251q11 22 25 42t20 20q8 0 51 0.5t117 0.5h157q16 0 34 -0.5t46 -0.5q12 0 12 -397q0 -58 -11 -208q3 -263 5 -266l-4 -10l-59 -5h-15q-16 0 -36.5 -0.5 t-30.5 -0.5h-199q-1 0 -6 -0.5t-9 -0.5q-19 0 -19 310q0 5 -1.5 7.5t-2.5 2.5h-7q-9 0 -47 -113l-13 -26q-12 -25 -25 -48.5t-34.5 -44t-41.5 -20.5q-82 0 -101 2q-43 67 -74 131t-41.5 91.5t-13.5 27.5q-10 0 -10 -10q0 -263 -12 -300q-4 -10 -8 -10q-3 0 -9 1h-6 q-138 -10 -200 -10q-9 0 -29.5 0.5t-35.5 0.5h-16l-60 15l-3 10q-1 0 -3 50t-4 116t-2 100q7 222 7 282q0 4 -2 26.5t-2 25.5q0 23 3.5 67t3.5 83q0 5 -1.5 35t-1.5 36q-4 4 -4 9q0 17 19.5 27.5t37 12.5t34.5 2h158q74 0 116.5 -0.5t50.5 -0.5q6 0 21 -20t25 -42 q6 -20 51.5 -135t49.5 -116q10 -21 20 -21q13 0 21 21z" />
<glyph unicode="&#xe000;" horiz-adv-x="1200" d="M0 1200h1200v-1200h-1200v1200z" />
<glyph horiz-adv-x="526" />
</font>
</defs>
</svg>
